Ago 23

Nathan Fillion se transforma en Nathan Drake en este fan film de catorce minutos basado en la franquicia de videojuegos “Uncharted” de Naughty Dog. La historia arranca cuando un grupo de maleantes le secuestra para dar con la localización de un gran tesoro. Pero los planes de Drake (Fillion) y su compañero Sully (Stephen Lang) son algo diferentes.

Título original: Uncharted: Live Action Fan Film (S)
Año: 2018
Duración: 15 min.
País: Estados Unidos Estados Unidos
Dirección: Allan Ungar
Guion: Allan Ungar, Jesse Wheeler (Personajes: Amy Hennig, Neil Druckmann, Josh Scherr. Videojuego: Naughty Dog)
Música: Aaron Gilhuis, Jacob Shea
Fotografía: Alex Chinnici
Reparto: Nathan Fillion, Stephen Lang, Mircea Monroe, Ernie Reyes Jr., Geno Segers
Productora: Productor: Nathan Fillion, Allan Ungar
Género: Acción. Aventuras | Fan Film. Videojuego. Cortometraje
Grupos: Naughty Dog | Uncharted

Tamaño: 389.93 MBs
Genero: Acción, Aventura, Estrenos
Idioma: VOSE
Subtitulo: Español, Español
Formato: MP4
Calidad: HDRIP
General
Complete name : Uncharted Live Action Fan Film [HDRip].mp4
Format : MPEG-4
Format profile : Base Media / Version 2
Codec ID : mp42 (isom/iso2/avc1/mp41)
File size : 390 MiB
Duration : 14 min 48 s
Overall bit rate mode : Variable
Overall bit rate : 3 680 kb/s
Encoded date : UTC 2018-07-24 19:58:59
Tagged date : UTC 2018-07-24 19:58:59
Writing application : HandBrake 1.0.7 2017040900

Video
ID : 1
Format : AVC
Format/Info : Advanced Video Codec
Format profile : Main@L4
Format settings : CABAC / 4 Ref Frames
Format settings, CABAC : Yes
Format settings, ReFrames : 4 frames
Codec ID : avc1
Codec ID/Info : Advanced Video Coding
Duration : 14 min 48 s
Bit rate : 3 500 kb/s
Width : 1 280 pixels
Height : 720 pixels
Display aspect ratio : 16:9
Frame rate mode : Variable
Frame rate : 23.976 (24000/1001) FPS
Minimum frame rate : 23.974 FPS
Maximum frame rate : 23.981 FPS
Color space : YUV
Chroma subsampling : 4:2:0
Bit depth : 8 bits
Scan type : Progressive
Bits/(Pixel*Frame) : 0.158
Stream size : 372 MiB (96%)
Writing library : x264 core 148 r2708 86b7198
Encoding settings : cabac=1 / ref=1 / deblock=1:0:0 / analyse=0x1:0x111 / me=hex / subme=2 / psy=1 / psy_rd=1.00:0.00 / mixed_ref=0 / me_range=16 / chroma_me=1 / trellis=0 / 8x8dct=0 / cqm=0 / deadzone=21,11 / fast_pskip=1 / chroma_qp_offset=0 / threads=12 / lookahead_threads=4 / sliced_threads=0 / nr=0 / decimate=1 / interlaced=0 / bluray_compat=0 / constrained_intra=0 / bframes=3 / b_pyramid=2 / b_adapt=1 / b_bias=0 / direct=1 / weightb=1 / open_gop=0 / weightp=1 / keyint=240 / keyint_min=24 / scenecut=40 / intra_refresh=0 / rc_lookahead=10 / rc=abr / mbtree=1 / bitrate=3500 / ratetol=1.0 / qcomp=0.60 / qpmin=0 / qpmax=69 / qpstep=4 / vbv_maxrate=20000 / vbv_bufsize=25000 / nal_hrd=none / filler=0 / ip_ratio=1.40 / aq=1:1.00
Encoded date : UTC 2018-07-24 19:58:59
Tagged date : UTC 2018-07-24 19:58:59
Color range : Limited
Color primaries : BT.709
Transfer characteristics : BT.709
Matrix coefficients : BT.709

Audio
ID : 2
Format : AAC
Format/Info : Advanced Audio Codec
Format profile : LC
Codec ID : mp4a-40-2
Duration : 14 min 48 s
Bit rate mode : Variable
Bit rate : 159 kb/s
Channel(s) : 2 channels
Channel positions : Front: L R
Sampling rate : 44.1 kHz
Frame rate : 43.066 FPS (1024 SPF)
Compression mode : Lossy
Stream size : 16.8 MiB (4%)
Title : Stereo / Stereo
Language : English
Default : Yes
Alternate group : 1
Encoded date : UTC 2018-07-24 19:58:59
Tagged date : UTC 2018-07-24 19:58:59

Un link sin comprimir

http://katfile.com/im50dbdeuxgw
http://ul.to/o6hx2yk2
https://dailyuploads.net/36sxytyuk5ku

Comprimido

http://katfile.com/rvbp6ikm24h6/1-8-18.rar.html
http://ul.to/u0y71qbz
https://openload.co/f/u1oRMppIAwg
https://dailyuploads.net/ehg8m33k389o

Ver Online

https://openload.co/f/IHm5pHdc3E0


Mensaje Privado
Cargando…
1.078 visitas


Categoria: Acción, Aventuras
RSS Seguir Feed RSS Comentarios | Temas de EmaMedina





Deja tu comentario


Debes estar conectado para ver o escribir comentarios.



Terminos y Condiciones - Politica de Privacidad - Report Abuse - DMCA