Sep 18

En su 7mo cumpleaños, la Princesa Barbara descubre un libro mágico que la transporta a Wonderland, un lugar encantado lleno de dragones y criaturas fantásticas.

Título original: The Princess and the Dragon
Año: 2018
Duración: 75 min.
País: Rusia Rusia
Dirección: Marina Nefedova
Guion: Vasiliy Rovenskiy
Fotografía: Animation
Reparto: Animation, Ani Lorak, Diomid Vinogradov, Sergey Smirnov, Konstantin Kozhevnikov, Irina Kireeva
Productora: Licensing Brands
Género: Animación. Infantil. Comedia. Fantástico | Dragones. Cuentos

General
Complete name : The.Princess.And.The.Dragon.TS.Latino.avi
Format : AVI
Format/Info : Audio Video Interleave
Format profile : OpenDML
File size : 1.02 GiB
Duration : 1 h 7 min
Overall bit rate : 2 141 kb/s
Writing application : Lavf53.32.100
Original source form/Name : The.Princess.And.The.Dragon

Video
ID : 0
Format : AVC
Format/Info : Advanced Video Codec
Format profile : High@L4.1
Format settings : CABAC / 2 Ref Frames
Format settings, CABAC : Yes
Format settings, RefFrames : 2 frames
Codec ID : H264
Duration : 1 h 7 min
Bit rate : 1 932 kb/s
Width : 720 pixels
Height : 336 pixels
Display aspect ratio : 2.143
Frame rate : 23.976 (24000/1001) FPS
Color space : YUV
Chroma subsampling : 4:2:0
Bit depth : 8 bits
Scan type : Progressive
Bits/(Pixel*Frame) : 0.333
Stream size : 940 MiB (90%)
Writing library : x264 core
Color range : Limited
Color primaries : BT.601 NTSC
Transfer characteristics : BT.709
Matrix coefficients : BT.601

Audio
ID : 1
Format : MPEG Audio
Format version : Version 1
Format profile : Layer 3
Format settings : Joint stereo / MS Stereo
Mode : Joint stereo
Mode extension : MS Stereo
Codec ID : 55
Codec ID/Hint : MP3
Duration : 1 h 7 min
Bit rate mode : Constant
Bit rate : 192 kb/s
Channel(s) : 2 channels
Sampling rate : 48.0 kHz
Compression mode : Lossy
Stream size : 93.4 MiB (9%)
Alignment : Aligned on interleaves
Interleave, duration : 24 ms (0.58 video frame)

Un link sin comprimir

http://katfile.com/mbr3835wmz34
https://www.mexashare.com/jzs5od5rz8hd
https://www.up-4.net/k54dv3rb4rw7

Enlaces intercambiables

http://katfile.com/sst6iamdfyqz
http://katfile.com/lt9vwcya8l53
http://ul.to/7ihrqnb0
http://ul.to/4t8a1asv
https://www.up-4.net/95ytqaobfmbr
https://www.up-4.net/4y0rd3rfy1dk
https://www.mexashare.com/yaf7azk1vwhf
https://www.mexashare.com/5v0ujtn30da1
https://openload.co/f/viu0t4WO7Bs
https://openload.co/f/32G99HoWpfo

Ver Online

https://openload.co/f/o17iFwAKwnk


Mensaje Privado
Cargando…
1.066 visitas

Categoria: Animación, Comedias, Infantiles y Familiares
RSS Seguir Feed RSS Comentarios | Temas de EmaMedina

Leave a Reply

Please Login to comment
  Subscribe  
Notify of


Terminos y Condiciones - Politica de Privacidad - Report Abuse - DMCA