Sep 2

Un grupo de estudiantes van a celebrar el año nuevo en una antigua mansión aislada de todo. Pero poco después de su llegada, sucesos extraños perturban el ambiente antes de que la fiesta se vuelva una pesadilla.

Título original: Le manoir
Año: 2017
Duración: 100 min.
País: Francia Francia
Dirección: Tony T. Datis
Guion: Dominique Gauriaud, Bernardo Barilli, Jurij Prette
Música: Oliver Dax, Charles Olins
Fotografía: Maximiliaan Dierickx
Reparto: Marc Jarousseau, Nathalie Odzierejko, Ludovik Day, Jérôme Niel, Yvick Letexier, Vincent Tirel, Vanessa Guide, Delphine Baril, Baptiste Lorber, Lila Lacombe, Willy Denzey
Productora: Gaumont / PlayWork / Nexus Factory / Umedia
Género: Comedia. Terror | Comedia de terror

General
Unique ID : 252744520583616120975259895831468888244 (0xBE24D2F4C180E509805233FE5A2AD0B4)
Complete name : The Mansion [1080p][Latino].mkv
Format : Matroska
Format version : Version 4 / Version 2
File size : 2.10 GiB
Duration : 1 h 40 min
Overall bit rate mode : Variable
Overall bit rate : 2 988 kb/s
Encoded date : UTC 2018-07-29 02:23:01
Writing application : mkvmerge v6.4.1 (‘Omega Point’) built on Sep 16 2013 22:05:10
Writing library : libebml v1.3.0 + libmatroska v1.4.1

Video
ID : 1
Format : AVC
Format/Info : Advanced Video Codec
Format profile : Main@L4
Format settings : CABAC / 3 Ref Frames
Format settings, CABAC : Yes
Format settings, RefFrames : 3 frames
Codec ID : V_MPEG4/ISO/AVC
Duration : 1 h 40 min
Bit rate mode : Variable
Bit rate : 2 610 kb/s
Maximum bit rate : 3 915 kb/s
Width : 1 920 pixels
Height : 1 080 pixels
Display aspect ratio : 16:9
Frame rate mode : Constant
Frame rate : 24.000 FPS
Color space : YUV
Chroma subsampling : 4:2:0
Bit depth : 8 bits
Scan type : Progressive
Bits/(Pixel*Frame) : 0.052
Stream size : 1.78 GiB (85%)
Writing library : x264 core 148 r2715 7e75228
Encoding settings : cabac=1 / ref=3 / deblock=1:0:0 / analyse=0x1:0x111 / me=umh / subme=10 / psy=1 / psy_rd=1.00:0.00 / mixed_ref=1 / me_range=24 / chroma_me=1 / trellis=2 / 8x8dct=0 / cqm=0 / deadzone=21,11 / fast_pskip=1 / chroma_qp_offset=-2 / threads=8 / lookahead_threads=1 / sliced_threads=0 / nr=0 / decimate=1 / interlaced=0 / bluray_compat=0 / stitchable=1 / constrained_intra=0 / bframes=2 / b_pyramid=0 / b_adapt=2 / b_bias=0 / direct=3 / weightb=1 / open_gop=0 / weightp=2 / keyint=48 / keyint_min=25 / scenecut=0 / intra_refresh=0 / rc_lookahead=48 / rc=2pass / mbtree=1 / bitrate=2610 / ratetol=1.0 / qcomp=0.50 / qpmin=6 / qpmax=51 / qpstep=4 / cplxblur=20.0 / qblur=0.5 / vbv_maxrate=3915 / vbv_bufsize=5220 / nal_hrd=vbr / filler=0 / ip_ratio=1.40 / aq=1:1.00
Default : Yes
Forced : No
Statistics Tags Issue : mkvmerge v16.0.0 (‘Protest’) 32-bit 2018-07-29 02:13:03 / mkvmerge v6.4.1 (‘Omega Point’) built on Sep 16 2013 22:05:10 2018-07-29 02:23:01
FromStats_BitRate : 2601837
FromStats_Duration : 01:40:26.250000000
FromStats_FrameCount : 144630
FromStats_StreamSize : 1959915762

Audio
ID : 2
Format : AC-3
Format/Info : Audio Coding 3
Format settings, Endianness : Big
Codec ID : A_AC3
Duration : 1 h 40 min
Bit rate mode : Constant
Bit rate : 384 kb/s
Channel(s) : 6 channels
Channel positions : Front: L C R, Side: L R, LFE
Sampling rate : 48.0 kHz
Frame rate : 31.250 FPS (1536 SPF)
Bit depth : 16 bits
Compression mode : Lossy
Stream size : 276 MiB (13%)
Title : Español latino
Language : Spanish
Service kind : Complete Main
Default : No
Forced : No
Statistics Tags Issue : mkvmerge v16.0.0 (‘Protest’) 32-bit 2018-07-29 02:13:03 / mkvmerge v6.4.1 (‘Omega Point’) built on Sep 16 2013 22:05:10 2018-07-29 02:23:01
FromStats_BitRate : 384000
FromStats_Duration : 01:40:26.528000000
FromStats_FrameCount : 188329
FromStats_StreamSize : 289273344

Text
ID : 3
Format : UTF-8
Codec ID : S_TEXT/UTF8
Codec ID/Info : UTF-8 Plain Text
Title : Español latino [Forzados]
Language : Spanish
Default : No
Forced : Yes
Statistics Tags Issue : mkvmerge v16.0.0 (‘Protest’) 32-bit 2018-07-29 02:13:03 / mkvmerge v6.4.1 (‘Omega Point’) built on Sep 16 2013 22:05:10 2018-07-29 02:23:01
FromStats_BitRate : 0
FromStats_Duration : 01:13:57.000000000
FromStats_FrameCount : 2
FromStats_StreamSize : 47

Un link sin comprimir

http://ul.to/ct3rlczc

Enlaces intercambiables

http://katfile.com/h5yesl4e62lw/TM-15-8-18.part1.rar.html
http://katfile.com/2y62x05r6w8f/TM-15-8-18.part2.rar.html
http://katfile.com/mnpicx0l9pul/TM-15-8-18.part3.rar.html
http://ul.to/7vtuga16
http://ul.to/yn31aqwc
http://ul.to/ac0bshz8
https://openload.co/f/ea9ACOHNqvw
https://openload.co/f/m8kFvB1c4Ec
https://openload.co/f/u8ugcYs3EAE


Mensaje Privado
Cargando…
477 visitas


Categoria: Comedias, Terror
RSS Seguir Feed RSS Comentarios | Temas de EmaMedina





Deja tu comentario


Debes estar conectado para ver o escribir comentarios.



Terminos y Condiciones - Politica de Privacidad - Report Abuse - DMCA