Ago 13

Para mantener durante el resto del año la tasa de criminalidad por debajo del 1%, los Nuevos Padres Fundadores de América ponen a prueba una teoría sociológica que da rienda suelta a todo tipo de agresiones durante una noche en una comunidad aislada. Pero cuando la violencia de los opresores se encuentra con la ira de los marginados, el vandalismo explota más allá de esas fronteras “experimentales” para extenderse por todo el país. Detrás de cada tradición hay una revolución. Descubre cómo toda una nación entera abrazó una brutal celebración anual: 12 horas de impunidad criminal. Bienvenidos a un movimiento que comenzó como un simple experimento.

Título original: The First Purgeaka
Año: 2018
Duración: 97 min.
País: Estados Unidos Estados Unidos
Dirección: Gerard McMurray
Guion: James DeMonaco
Música: Kevin Lax
Fotografía: Anastas N. Michos
Reparto: Y’lan Noel, Lex Scott Davis, Joivan Wade, Lauren Vélez, Marisa Tomei, Melonie Diaz, Mo McRae, Steve Harris, Chyna Layne, Patch Darragh, Aaron V. Williamson, Qurrat Ann Kadwani, David Breda, Jessica Bell, Jermel Howard, Maria Rivera, Katina Forte, Christian Robinson, Katherine Fudge, Allen Wall, Christopher Fortin, Mugga, Robert Bozek, Justin Clarke, Rotimi Paul, Geoff Schuppert, Cloé Xhauflaire, John P. McGinty, Caitlyn Stephenson, Brandyn T. Williams, Peter Johnson, Gabriel Robere, Eric Witkowski
Productora: Blumhouse Productions / Platinum Dunes. Distribuida por Universal Pictures
Género: Thriller. Terror. Acción | Distopía. Thriller futurista. Crimen. Precuela

General
Complete name : The First Purge [Cam][Latino].mp4
Format : MPEG-4
Format profile : Base Media / Version 2
Codec ID : mp42 (isom/iso2/avc1/mp41)
File size : 1.36 GiB
Duration : 1 h 29 min
Overall bit rate mode : Variable
Overall bit rate : 2 172 kb/s
Encoded date : UTC 2018-07-22 16:35:54
Tagged date : UTC 2018-07-22 16:35:54
Writing application : HandBrake 1.0.7 2017040900

Video
ID : 1
Format : AVC
Format/Info : Advanced Video Codec
Format profile : Main@L4
Format settings : CABAC / 4 Ref Frames
Format settings, CABAC : Yes
Format settings, ReFrames : 4 frames
Codec ID : avc1
Codec ID/Info : Advanced Video Coding
Duration : 1 h 29 min
Bit rate : 2 000 kb/s
Width : 720 pixels
Height : 480 pixels
Display aspect ratio : 16:9
Original display aspect rat : 16:9
Frame rate mode : Constant
Frame rate : 29.970 (30000/1001) FPS
Standard : NTSC
Color space : YUV
Chroma subsampling : 4:2:0
Bit depth : 8 bits
Scan type : Progressive
Bits/(Pixel*Frame) : 0.193
Stream size : 1.26 GiB (92%)
Writing library : x264 core 148 r2708 86b7198
Encoding settings : cabac=1 / ref=1 / deblock=1:0:0 / analyse=0x1:0x111 / me=hex / subme=2 / psy=1 / psy_rd=1.00:0.00 / mixed_ref=0 / me_range=16 / chroma_me=1 / trellis=0 / 8x8dct=0 / cqm=0 / deadzone=21,11 / fast_pskip=1 / chroma_qp_offset=0 / threads=12 / lookahead_threads=3 / sliced_threads=0 / nr=0 / decimate=1 / interlaced=0 / bluray_compat=0 / constrained_intra=0 / bframes=3 / b_pyramid=2 / b_adapt=1 / b_bias=0 / direct=1 / weightb=1 / open_gop=0 / weightp=1 / keyint=300 / keyint_min=30 / scenecut=40 / intra_refresh=0 / rc_lookahead=10 / rc=abr / mbtree=1 / bitrate=2000 / ratetol=1.0 / qcomp=0.60 / qpmin=0 / qpmax=69 / qpstep=4 / vbv_maxrate=20000 / vbv_bufsize=25000 / nal_hrd=none / filler=0 / ip_ratio=1.40 / aq=1:1.00
Encoded date : UTC 2018-07-22 16:35:54
Tagged date : UTC 2018-07-22 16:35:54
Color range : Limited
Color primaries : BT.601 NTSC
Transfer characteristics : BT.709
Matrix coefficients : BT.601

Audio
ID : 2
Format : AAC
Format/Info : Advanced Audio Codec
Format profile : LC
Codec ID : mp4a-40-2
Duration : 1 h 29 min
Bit rate mode : Variable
Bit rate : 160 kb/s
Channel(s) : 2 channels
Channel positions : Front: L R
Sampling rate : 48.0 kHz
Frame rate : 46.875 FPS (1024 SPF)
Compression mode : Lossy
Stream size : 103 MiB (7%)
Title : Stereo / Stereo
Language : Spanish
Default : Yes
Alternate group : 1
Encoded date : UTC 2018-07-22 16:35:54
Tagged date : UTC 2018-07-22 16:35:54

Un link sin comprimir

http://katfile.com/sfdrcjivkbhi
http://ul.to/sse9omli
https://dailyuploads.net/38ipa0nn97as

Enlaces intercambiables

http://katfile.com/dvd440ysmm4q/4-29-7-18.part1.rar.html
http://katfile.com/6n7q3j011glz/4-29-7-18.part2.rar.html
http://ul.to/w446xcjp
http://ul.to/9l1h0c4x
https://openload.co/f/QpW2epWBZXg
https://openload.co/f/1vnoJ1TnCRs
https://dailyuploads.net/n1hwniufkkn4
https://dailyuploads.net/2zi3l2lbmpj4

Ver Online

https://openload.co/f/xS4ZrlvCDuM


Mensaje Privado
Cargando…
817 visitas


Categoria: Acción, Terror
RSS Seguir Feed RSS Comentarios | Temas de EmaMedina





Deja tu comentario


Debes estar conectado para ver o escribir comentarios.



Terminos y Condiciones - Politica de Privacidad - Report Abuse - DMCA