Sep 1

Robert McCall (Denzel Washington) garantiza una justicia inquebrantable para los explotados y oprimidos, pero ¿cuánto de lejos llegará cuando se trate de alguien a quien ama? Secuela de The Equalizer (El protector) (2014).

Título original: The Equalizer 2
Año: 2018
Duración: 120 min.
País: Estados Unidos Estados Unidos
Dirección: Antoine Fuqua
Guion: Richard Wenk (Personaje: Richard Lindheim, Michael Sloan)
Música: Harry Gregson-Williams
Fotografía: Oliver Wood
Reparto: Denzel Washington, Pedro Pascal, Bill Pullman, Melissa Leo, Ashton Sanders, Jonathan Scarfe, Sakina Jaffrey, Lexie Roth, Caroline Day, Donald Cerrone, Abigail Marlowe, Alin Halajian, Annie Pisapia, Joseph Oliveira
Productora: Columbia Pictures / Lonetree Entertainment / Mace Neufeld Productions / Sony Pictures Entertainment (SPE) / Fuqua Films / Escape Artists
Género: Thriller | Secuela. Secuestros / Desapariciones

General
Complete name : The Equalizer 2 [TS][Latino].avi
Format : AVI
Format/Info : Audio Video Interleave
Format profile : OpenDML
File size : 1.90 GiB
Duration : 1 h 57 min
Overall bit rate : 2 320 kb/s
Writing application : Lavf53.32.100
Original source form/Name : The.Equalizer.2
IsTruncated : Yes

Video
ID : 0
Format : AVC
Format/Info : Advanced Video Codec
Format profile : High@L4.1
Format settings : CABAC / 2 Ref Frames
Format settings, CABAC : Yes
Format settings, RefFrames : 2 frames
Codec ID : H264
Duration : 1 h 57 min
Bit rate : 2 115 kb/s
Width : 720 pixels
Height : 310 pixels
Display aspect ratio : 2.35:1
Frame rate : 23.976 (24000/1001) FPS
Color space : YUV
Chroma subsampling : 4:2:0
Bit depth : 8 bits
Scan type : Progressive
Bits/(Pixel*Frame) : 0.395
Stream size : 1.74 GiB (91%)
Writing library : x264 core
Color range : Limited
Color primaries : BT.601 NTSC
Transfer characteristics : BT.709
Matrix coefficients : BT.601

Audio
ID : 1
Format : MPEG Audio
Format version : Version 1
Format profile : Layer 3
Format settings : Joint stereo / MS Stereo
Mode : Joint stereo
Mode extension : MS Stereo
Codec ID : 55
Codec ID/Hint : MP3
Duration : 1 h 57 min
Bit rate mode : Constant
Bit rate : 192 kb/s
Channel(s) : 2 channels
Sampling rate : 48.0 kHz
Compression mode : Lossy
Stream size : 161 MiB (8%)
Alignment : Aligned on interleaves
Interleave, duration : 24 ms (0.58 video frame)
Writing library : LAME3.99.5

Un link sin comprimir

http://ul.to/zscldesr

Enlaces intercambiables

http://katfile.com/w4ilb2hnyvzd/T.E.2-27-8.part1.rar.html
http://katfile.com/2p1fnnoj6blz/T.E.2-27-8.part2.rar.html
http://ul.to/56o6thf6
http://ul.to/grkg25o9
https://openload.co/f/tn6mIwbZTBk
https://openload.co/f/6NP2cX3IeY8

Ver Online

https://openload.co/f/tIOcuit2-Ks


Mensaje Privado
Cargando…
1.402 visitas


Categoria: Acción
RSS Seguir Feed RSS Comentarios | Temas de EmaMedina





Deja tu comentario


Debes estar conectado para ver o escribir comentarios.



Terminos y Condiciones - Politica de Privacidad - Report Abuse - DMCA