Sep 3

Cuando los Jóvenes Titanes se enteran de que otros superhéroes de DC han realizado sus propias películas, estos buscaran encontrar en un viaje épico un director perfecto para su debut en la gran pantalla, pero un viejo enemigo tiene otras ideas planeadas para ellos.

Título original: Teen Titans Go! To the Movies aka
Año: 2018
Duración: 87 min.
País: Estados Unidos Estados Unidos
Dirección: Aaron Horvath, Peter Rida Michail
Guion: Aaron Horvath, Michael Jelenic
Música: Jason Nesmith
Fotografía: Animation
Reparto: Animation
Productora: DC Entertainment / Warner Bros. Animation / Warner Bros. / Cartoon Network / Warner Animation Group
Género: Animación. Acción. Comedia | Superhéroes. Cómic. DC Comics. Sátira. Cine dentro del cine

General
Complete name : Teenn Titans Go [HDTC][Latino].avi
Format : AVI
Format/Info : Audio Video Interleave
Format profile : OpenDML
File size : 1.51 GiB
Duration : 1 h 24 min
Overall bit rate : 2 559 kb/s
Movie name : T33n.T1it4ns.G0.2018.(HDTC).(Latino)
Writing application : Lavf54.63.104
Original source form/Name : SAGAS

Video
ID : 0
Format : AVC
Format/Info : Advanced Video Codec
Format profile : Main@L3
Format settings : CABAC / 1 Ref Frames
Format settings, CABAC : Yes
Format settings, RefFrames : 1 frame
Codec ID : H264
Duration : 1 h 24 min
Bit rate : 2 099 kb/s
Width : 720 pixels
Height : 364 pixels
Display aspect ratio : 1.978
Frame rate : 23.976 (24000/1001) FPS
Color space : YUV
Chroma subsampling : 4:2:0
Bit depth : 8 bits
Scan type : Progressive
Bits/(Pixel*Frame) : 0.334
Stream size : 1.24 GiB (82%)
Writing library : x264 core
Color range : Limited
Color primaries : BT.601 NTSC
Transfer characteristics : BT.709
Matrix coefficients : BT.601

Audio
ID : 1
Format : AC-3
Format/Info : Audio Coding 3
Format settings, Endianness : Big
Codec ID : 2000
Duration : 1 h 24 min
Bit rate mode : Constant
Bit rate : 448 kb/s
Channel(s) : 6 channels
Channel positions : Front: L C R, Side: L R, LFE
Sampling rate : 48.0 kHz
Frame rate : 31.250 FPS (1536 SPF)
Bit depth : 16 bits
Compression mode : Lossy
Stream size : 270 MiB (18%)
Alignment : Aligned on interleaves
Interleave, duration : 32 ms (0.77 video frame)
Service kind : Complete Main

Un link sin comprimir

http://katfile.com/tck01yi61qer
http://ul.to/ypobpflp

Enlaces intercambiables

http://katfile.com/3z6rymf5n7dd/T.T.G-10-9.part1.rar.html
http://katfile.com/nda3tak68wp1/T.T.G-10-9.part2.rar.html
http://ul.to/k0iy7ozk
http://ul.to/mwgirr9i
https://openload.co/f/JT9-RoyOZUc
https://openload.co/f/RMugEbyCnSw

Ver Online

https://openload.co/f/4751-wD_HTg


Mensaje Privado
Cargando…
1.576 visitas


Categoria: Acción, Animación, Comedias
RSS Seguir Feed RSS Comentarios | Temas de EmaMedina





Deja tu comentario


Debes estar conectado para ver o escribir comentarios.



Terminos y Condiciones - Politica de Privacidad - Report Abuse - DMCA