Sep 8

Will Ford es un antiguo líder del Equipo de Rescate de Rehenes del FBI y veterano de los marines que ahora trabaja como asesor de seguridad de los rascacielos. En una misión en China, Ford se encontrará con que el edificio más alto y seguro del mundo de repente se incendia. Mientras encuentra a los responsables del incendio, tendrá que intentar salvar a su familia atrapada dentro del rascacielos.

Título original: Skyscraperaka
Año: 2018
Duración: 103 min.
País: Estados Unidos Estados Unidos
Dirección: Rawson Marshall Thurber
Guion: Rawson Marshall Thurber
Música: Steve Jablonsky
Fotografía: Robert Elswit
Reparto: Dwayne “The Rock” Johnson, Neve Campbell, Pablo Schreiber, Roland Møller, Paul McGillion, Adrian Holmes, Noah Taylor, Kevin Rankin, McKenna Roberts, Byron Mann, Matt O’Leary, Tzi Ma, Chin Han, Hannah Quinlivan, Beatrice King, Kathy Wu, Venus Terzo, Vivian Full, Elfina Luk
Productora: Legendary Pictures / FPC Production / Seven Bucks Productions. Distribuida por Universal Pictures
Género: Acción. Thriller | Secuestros / Desapariciones

General
Complete name : Skyscraper [WebScr][Latino].avi
Format : AVI
Format/Info : Audio Video Interleave
File size : 1.64 GiB
Duration : 1 h 42 min
Overall bit rate : 2 294 kb/s
Writing application : VirtualDubMod 1.5.10.2 (build 2540/release)
Writing library : VirtualDubMod build 2540/release

Video
ID : 0
Format : AVC
Format/Info : Advanced Video Codec
Format profile : High@L4.1
Format settings : CABAC / 2 Ref Frames
Format settings, CABAC : Yes
Format settings, RefFrames : 2 frames
Codec ID : H264
Duration : 1 h 42 min
Bit rate : 2 093 kb/s
Width : 720 pixels
Height : 404 pixels
Display aspect ratio : 16:9
Frame rate : 23.976 (24000/1001) FPS
Color space : YUV
Chroma subsampling : 4:2:0
Bit depth : 8 bits
Scan type : Progressive
Bits/(Pixel*Frame) : 0.300
Stream size : 1.50 GiB (91%)
Writing library : x264 core
Color range : Limited
Color primaries : BT.601 NTSC
Transfer characteristics : BT.709
Matrix coefficients : BT.601

Audio
ID : 1
Format : MPEG Audio
Format version : Version 1
Format profile : Layer 3
Format settings : Joint stereo / MS Stereo
Mode : Joint stereo
Mode extension : MS Stereo
Codec ID : 55
Codec ID/Hint : MP3
Duration : 1 h 42 min
Bit rate mode : Constant
Bit rate : 192 kb/s
Channel(s) : 2 channels
Sampling rate : 48.0 kHz
Compression mode : Lossy
Stream size : 141 MiB (8%)
Alignment : Split accross interleaves
Interleave, duration : 42 ms (1.00 video frame)
Interleave, preload duratio : 500 ms
Writing library : LAME3.99.5

Un link sin comprimir

http://katfile.com/8x9hflxszjf0
https://www.mexashare.com/mpahv4xio4el
https://www.up-4.net/yapccbeas3ye

Enlaces intercambiables

http://katfile.com/wkafpsgcudsz/Sk.10-9.part1.rar.html
http://katfile.com/sgb3odyreebi/Sk.10-9.part2.rar.html
http://ul.to/udl2pkd9
http://ul.to/zkfm3qpr
https://www.mexashare.com/coutozklun6c
https://www.mexashare.com/i4ed2coabmw2
https://www.up-4.net/xdb6xsdqyita
https://www.up-4.net/zf5ar20aj93p
https://openload.co/f/28ExTBIT0qs
https://openload.co/f/YIwEyV1WOJY

Ver Online

https://openload.co/f/QgOnZwAu9HA


Mensaje Privado
Cargando…

Categoria: Acción
RSS Seguir Feed RSS Comentarios | Temas de EmaMedina



Deja tu comentario


Debes estar conectado para ver o escribir comentarios.



Terminos y Condiciones - Politica de Privacidad - Report Abuse - DMCA