Jul 25

Remake del film indonesio “Satan’s Slave” (Pengabdi Setan), estrenado en 1982 y dirigido por Sisworo Gautama Putra, que a su vez era un remake de “Phantasma” de Don Coscarelli.

Título original: Pengabdi Setan (Satan’s Slaves)
Año: 2017
Duración: 106 min.
País: Indonesia Indonesia
Dirección: Joko Anwar
Guion: Joko Anwar, Naryono Prayitno, Subagio S., Imam Tantowi (Remake: Sisworo Gautama Putra)
Música: Bembi Gusti, Tony Merle, Aghi Narottama
Fotografía: Ical Tanjung
Reparto: Bront Palarae, Tara Basro, Endy Arfian, Dimas Aditya, Nasar Annuz, M. Adhiyat, Ayu Laksmi, Egy Fedly, Elly D. Luthan, Arswendi Nasution, Fachry Albar, Asmara Abigail
Productora: Coproducción Indonesia-Corea del Sur; Rapi Films / CJ Entertainment
Género: Terror | Remake. Sobrenatural

General
Complete name : Los.Hurfanos. HDRip Latino.avi
Format : AVI
Format/Info : Audio Video Interleave
Format profile : OpenDML
File size : 1.68 GiB
Duration : 1 h 45 min
Overall bit rate : 2 274 kb/s
Writing application : Lavf52.84.0

Video
ID : 0
Format : AVC
Format/Info : Advanced Video Codec
Format profile : Baseline@L3
Format settings : 2 Ref Frames
Format settings, CABAC : No
Format settings, ReFrames : 2 frames
Format settings, GOP : M=1, N=13
Codec ID : H264
Duration : 1 h 45 min
Bit rate : 2 000 kb/s
Width : 720 pixels
Height : 302 pixels
Display aspect ratio : 2.40:1
Frame rate mode : Variable
Frame rate : 24.000 FPS
Color space : YUV
Chroma subsampling : 4:2:0
Bit depth : 8 bits
Scan type : Progressive
Bits/(Pixel*Frame) : 0.383
Stream size : 1.48 GiB (88%)
Writing library : x264 core 110
Encoding settings : cabac=0 / ref=2 / deblock=1:0:0 / analyse=0x1:0 / me=hex / subme=8 / psy=1 / psy_rd=1.00:0.00 / mixed_ref=1 / me_range=16 / chroma_me=0 / trellis=0 / 8x8dct=0 / cqm=0 / deadzone=21,11 / fast_pskip=1 / chroma_qp_offset=-2 / threads=8 / sliced_threads=0 / nr=0 / decimate=1 / interlaced=0 / constrained_intra=0 / bframes=0 / weightp=0 / keyint=13 / keyint_min=7 / scenecut=0 / intra_refresh=0 / rc_lookahead=13 / rc=abr / mbtree=1 / bitrate=2000 / ratetol=1.0 / qcomp=0.00 / qpmin=10 / qpmax=51 / qpstep=4 / ip_ratio=1.41 / aq=1:1.00

Audio
ID : 1
Format : AC-3
Format/Info : Audio Coding 3
Codec ID : 2000
Duration : 1 h 45 min
Bit rate mode : Constant
Bit rate : 256 kb/s
Channel(s) : 2 channels
Channel positions : Front: L R
Sampling rate : 48.0 kHz
Frame rate : 31.250 FPS (1536 SPF)
Bit depth : 16 bits
Compression mode : Lossy
Stream size : 194 MiB (11%)
Alignment : Aligned on interleaves
Interleave, duration : 32 ms (0.77 video frame)
Interleave, preload duratio : 32 ms
Service kind : Complete Main

Un link sin comprimir

http://katfile.com/4xdfeyfq6c60
https://dailyuploads.net/22twuvivrewl
http://ul.to/c69boa2p

Ver Online

https://openload.co/f/-nusAdJ3lLI


Mensaje Privado
Cargando…
751 visitas


Categoria: Terror
RSS Seguir Feed RSS Comentarios | Temas de EmaMedina





Deja tu comentario


Debes estar conectado para ver o escribir comentarios.



Terminos y Condiciones - Politica de Privacidad - Report Abuse - DMCA