Sep 6

En 1976 un avión de Air France con 248 pasajeros a bordo fue secuestrado por dos palestinos del Frente Popular para la Liberación de Palestina y dos alemanes de las Células Revolucionarias alemanas, siendo desviado al Aeropuerto Internacional de Entebbe, en Uganda. Los secuestradores exigían la liberación de más de 50 palestinos detenidos en diferentes países.

Título original: Entebbeaka
Año: 2018
Duración: 107 min.
País: Reino Unido Reino Unido
Dirección: José Padilha
Guion: Gregory Burke
Música: Rodrigo Amarante
Fotografía: Lula Carvalho
Reparto: Rosamund Pike, Daniel Brühl, Eddie Marsan, Ben Schnetzer, Kamil Lemieszewski, Denis Menochet, Mark Ivanir, Natalie Stone, Andrea Deck, Vincent Riotta, Peter Sullivan, Lior Ashkenazi, Flynn Allen, Brontis Jodorowsky, Angel Bonanni, Noof McEwan, Ingrid Craigie, Yiftach Klein, Omar Berdouni, Uriel Emil, David Annen, Frida Cauchi, Laurel Lefkow, Daniel Ben Zenou, Antonella Axisa, Jonathan Pyatt
Productora: Coproducción Reino Unido-Estados Unidos; Participant Media / Pellikola / Working Title Films. Distribuida por Lionsgate [USA]
Género: Thriller. Drama. Acción | Basado en hechos reales. Años 70. Secuestros / Desapariciones. Terrorismo. Aviones

General
Complete name : Rescate En Entebbe [HDRip][Latino].mp4
Format : MPEG-4
Format profile : Base Media
Codec ID : isom (isom/iso2/avc1/mp41)
File size : 438 MiB
Duration : 1 h 46 min
Overall bit rate mode : Variable
Overall bit rate : 573 kb/s
Writing application : Lavf57.83.100

Video
ID : 1
Format : AVC
Format/Info : Advanced Video Codec
Format profile : High@L3.1
Format settings : CABAC / 5 Ref Frames
Format settings, CABAC : Yes
Format settings, RefFrames : 5 frames
Codec ID : avc1
Codec ID/Info : Advanced Video Coding
Duration : 1 h 46 min
Bit rate : 512 kb/s
Width : 720 pixels
Height : 304 pixels
Display aspect ratio : 2.35:1
Frame rate mode : Constant
Frame rate : 23.976 (24000/1001) FPS
Color space : YUV
Chroma subsampling : 4:2:0
Bit depth : 8 bits
Scan type : Progressive
Bits/(Pixel*Frame) : 0.098
Stream size : 387 MiB (88%)
Writing library : x264 core 148 r2795 aaa9aa8
Encoding settings : cabac=1 / ref=5 / deblock=1:0:0 / analyse=0x3:0x113 / me=hex / subme=7 / psy=1 / psy_rd=1.00:0.00 / mixed_ref=1 / me_range=16 / chroma_me=1 / trellis=1 / 8x8dct=1 / cqm=0 / deadzone=21,11 / fast_pskip=1 / chroma_qp_offset=-2 / threads=4 / lookahead_threads=4 / sliced_threads=1 / slices=4 / nr=0 / decimate=1 / interlaced=0 / bluray_compat=0 / constrained_intra=0 / bframes=0 / weightp=2 / keyint=250 / keyint_min=23 / scenecut=40 / intra_refresh=0 / rc=abr / mbtree=0 / bitrate=512 / ratetol=1.0 / qcomp=0.60 / qpmin=0 / qpmax=69 / qpstep=4 / ip_ratio=1.40 / aq=1:1.00

Audio
ID : 2
Format : AAC
Format/Info : Advanced Audio Codec
Format profile : LC
Codec ID : mp4a-40-2
Duration : 1 h 46 min
Duration_LastFrame : -11 ms
Bit rate mode : Variable
Bit rate : 62.4 kb/s
Maximum bit rate : 64.0 kb/s
Channel(s) : 2 channels
Channel positions : Front: L R
Sampling rate : 48.0 kHz
Frame rate : 46.875 FPS (1024 SPF)
Compression mode : Lossy
Stream size : 47.7 MiB (11%)
Default : Yes
Alternate group : 1

Sin comprimir

http://katfile.com/04zstg3uq6bd
http://ul.to/ztq7eq4w
https://www.mexashare.com/f1yzxrbn2o5s
https://www.up-4.net/fmhsho1yvfnq

Comprimido

http://katfile.com/uws3kt93peny
http://ul.to/1m1a7pa3
https://openload.co/f/akA02hewJZQ
https://www.mexashare.com/gkgla2si5i0u
https://www.up-4.net/2wsgn7s0pzpp

Ver Online

https://openload.co/f/NBY7pt7OsDo


Mensaje Privado
Cargando…
675 visitas


Categoria: Acción, Dramáticas
RSS Seguir Feed RSS Comentarios | Temas de EmaMedina





Deja tu comentario


Debes estar conectado para ver o escribir comentarios.



Terminos y Condiciones - Politica de Privacidad - Report Abuse - DMCA