Sep 13

Cuatro alumnas en su último año de secundaria roban la Prueba de Selección Universitaria (PSU) y escapan a la playa para memorizar las respuestas. Sin embargo, el verano, la fiesta y los hombres las desvían de su plan perfecto perdiendo la única copia a días de rendir el examen. Ahora las cuatro deberán poner su amistad a prueba si quieren recuperarla y convertirse en puntaje nacional.

Título original: Prueba de actitud
Año: 2016
Duración: 90 min.
País: Chile Chile
Dirección: Fabrizio Copano, Augusto Matte
Guion: Valeria Hofmann, Fabrizio Copano
Música: Mkrni
Fotografía: Cristián Petit-Laurent
Reparto: Fabiola Alarcón, Lucas Balmaceda, Ingrid Cruz, José Luis Cáceres, Javiera Díaz de Valdés, Rafael Gumucio, Constanza Piccoli, Denise Rosenthal, Agustín Silva, Belén Soto, Jorge Zabaleta, Camilo Carmona, Augusto Schuster, Paulina Urrutia
Productora: Forastero / Jirafa
Género: Comedia

General
Complete name : pru3b4.d3.4ct1tud.2016.hdrip.720p.latino.mp4
Format : MPEG-4
Format profile : Base Media / Version 2
Codec ID : mp42 (isom/iso2/avc1/mp41)
File size : 1.44 GiB
Duration : 1 h 28 min
Overall bit rate mode : Variable
Overall bit rate : 2 329 kb/s
Encoded date : UTC 2036-02-06 06:28:16
Tagged date : UTC 2036-02-06 06:28:16
Writing application : HandBrake 0.10.2 2015060900

Video
ID : 1
Format : AVC
Format/Info : Advanced Video Codec
Format profile : Main@L4
Format settings : CABAC / 4 Ref Frames
Format settings, CABAC : Yes
Format settings, RefFrames : 4 frames
Codec ID : avc1
Codec ID/Info : Advanced Video Coding
Duration : 1 h 28 min
Bit rate : 2 162 kb/s
Nominal bit rate : 2 000 kb/s
Width : 1 280 pixels
Height : 692 pixels
Display aspect ratio : 1.85:1
Frame rate mode : Variable
Frame rate : 23.976 FPS
Minimum frame rate : 21.277 FPS
Maximum frame rate : 24.390 FPS
Color space : YUV
Chroma subsampling : 4:2:0
Bit depth : 8 bits
Scan type : Progressive
Bits/(Pixel*Frame) : 0.102
Stream size : 1.34 GiB (93%)
Writing library : x264 core 142 r2479 dd79a61
Encoding settings : cabac=1 / ref=1 / deblock=1:0:0 / analyse=0x1:0x111 / me=hex / subme=2 / psy=1 / psy_rd=1.00:0.00 / mixed_ref=0 / me_range=16 / chroma_me=1 / trellis=0 / 8x8dct=0 / cqm=0 / deadzone=21,11 / fast_pskip=1 / chroma_qp_offset=0 / threads=12 / lookahead_threads=4 / sliced_threads=0 / nr=0 / decimate=1 / interlaced=0 / bluray_compat=0 / constrained_intra=0 / bframes=3 / b_pyramid=2 / b_adapt=1 / b_bias=0 / direct=1 / weightb=1 / open_gop=0 / weightp=1 / keyint=240 / keyint_min=24 / scenecut=40 / intra_refresh=0 / rc_lookahead=10 / rc=abr / mbtree=1 / bitrate=2000 / ratetol=1.0 / qcomp=0.60 / qpmin=0 / qpmax=69 / qpstep=4 / vbv_maxrate=20000 / vbv_bufsize=25000 / nal_hrd=none / filler=0 / ip_ratio=1.40 / aq=1:1.00
Encoded date : UTC 2036-02-06 06:28:16
Tagged date : UTC 2036-02-06 06:28:16
Color range : Limited
Color primaries : BT.709
Transfer characteristics : BT.709
Matrix coefficients : BT.709

Audio
ID : 2
Format : AAC
Format/Info : Advanced Audio Codec
Format profile : LC
Codec ID : mp4a-40-2
Duration : 1 h 28 min
Bit rate mode : Variable
Bit rate : 160 kb/s
Channel(s) : 2 channels
Channel positions : Front: L R
Sampling rate : 48.0 kHz
Frame rate : 46.875 FPS (1024 SPF)
Compression mode : Lossy
Stream size : 101 MiB (7%)
Title : Stereo / Stereo
Language : Spanish
Default : Yes
Alternate group : 1
Encoded date : UTC 2036-02-06 06:28:16
Tagged date : UTC 2036-02-06 06:28:16

Un link sin comprimir

http://katfile.com/jblqgdghjlhj
https://www.up-4.net/3m3d212kelff
https://www.mexashare.com/u96m5hzfcjhp
http://ul.to/q59naxge

Enlaces intercambiables

http://katfile.com/5ixtmpqjpaz8/P.d.A-12-9.part1.rar.html
http://katfile.com/lvvmqcji8rdx/P.d.A-12-9.part2.rar.html
https://www.up-4.net/x6li4fle6dz4
https://www.up-4.net/28tsgo7owvno
https://www.mexashare.com/f2mnvcvrxgex
https://www.mexashare.com/43t6j520xg0o
https://openload.co/f/-tYmnZJpWC0
https://openload.co/f/Fi7PSVeSSHM
http://ul.to/ige3v17t
http://ul.to/7dapbxq8

Ver Online

https://openload.co/f/VPnl8PALfh8


Mensaje Privado
Cargando…

Categoria: Comedias
RSS Seguir Feed RSS Comentarios | Temas de EmaMedina



Deja tu comentario


Debes estar conectado para ver o escribir comentarios.



Terminos y Condiciones - Politica de Privacidad - Report Abuse - DMCA