Jul 27

Peng, un ganso soltero que se niega a vivir como los demás esperan que lo haga, ayuda a dos jóvenes patitos que han emprendido una larga aventura a través de montañas, lagos y bosques de bambú.

Título original: Duck Duck Goose
Año: 2018
Duración: 82 min.
País: China China
Dirección: Christopher Jenkins
Guion: Rob Muir, Christopher Jenkins (Historia: Christopher Jenkins)
Música: Mark Isham
Fotografía: Animation
Reparto: Animation
Productora: Coproducción China-Estados Unidos; Original Force. Distribuida por Open Road Films
Género: Animación. Comedia | Pájaros. 3-D

General
Complete name : Duck.Duck.Goose.HDRip.Latino.avi
Format : AVI
Format/Info : Audio Video Interleave
File size : 1.64 GiB
Duration : 1 h 32 min
Overall bit rate : 2 544 kb/s
Writing application : VirtualDubMod 1.5.10.2 (build 2540/release)
Writing library : VirtualDubMod build 2540/release

Video
ID : 0
Format : AVC
Format/Info : Advanced Video Codec
Format profile : High@L4.1
Format settings : CABAC / 2 Ref Frames
Format settings, CABAC : Yes
Format settings, ReFrames : 2 frames
Codec ID : H264
Duration : 1 h 32 min
Bit rate : 2 087 kb/s
Width : 720 pixels
Height : 406 pixels
Display aspect ratio : 16:9
Frame rate : 23.976 (24000/1001) FPS
Color space : YUV
Chroma subsampling : 4:2:0
Bit depth : 8 bits
Scan type : Progressive
Bits/(Pixel*Frame) : 0.298
Stream size : 1.34 GiB (82%)
Writing library : x264 core
Color range : Limited
Color primaries : BT.601 NTSC
Transfer characteristics : BT.709
Matrix coefficients : BT.601

Audio
ID : 1
Format : AC-3
Format/Info : Audio Coding 3
Codec ID : 2000
Duration : 1 h 32 min
Bit rate mode : Constant
Bit rate : 448 kb/s
Channel(s) : 6 channels
Channel positions : Front: L C R, Side: L R, LFE
Sampling rate : 48.0 kHz
Frame rate : 31.250 FPS (1536 SPF)
Bit depth : 16 bits
Compression mode : Lossy
Stream size : 296 MiB (18%)
Alignment : Split accross interleaves
Interleave, duration : 42 ms (1.00 video frame)
Interleave, preload duratio : 500 ms
Service kind : Complete Main

Un link sin comprimir

http://katfile.com/2ydglmqh3539
http://ul.to/o10mrpr0
https://dailyuploads.net/itafy5p55ros

Ver Online

https://openload.co/f/lqnKzjDC-Cs


Mensaje Privado
Cargando…
507 visitas


Categoria: Animación, Comedias, Infantiles y Familiares
RSS Seguir Feed RSS Comentarios | Temas de EmaMedina





Deja tu comentario


Debes estar conectado para ver o escribir comentarios.



Terminos y Condiciones - Politica de Privacidad - Report Abuse - DMCA