Jul 25

Kate es una madre soltera, trabajadora, madre de tres hijas, contratada para limpiar un yate de lujo que pertenece a Leonardo un playboy mexicano egoísta, consentido y adinerado. Después de despedir a Kate injustamente, Leonardo se cae del bote y se despierta sin recordar quién es. Para obtener la venganza, Kate aparece en el hospital y convence al confuso amnésico de que están casados. Mientras Leonardo intenta acostumbrarse al trabajo manual y a su nueva familia, Kate comienza a preguntarse cuánto tiempo puede seguir engañando a su falso marido. Una nueva versión de la comedia de 1987.

Título original: Overboard
Año: 2018
Duración: 112 min.
País: Estados Unidos Estados Unidos
Dirección: Rob Greenberg
Guion: Bob Fisher, Rob Greenberg (Historia: Leslie Dixon)
Música: Lyle Workman
Fotografía: Michael Barrett
Reparto: Eugenio Derbez, Anna Faris, Eva Longoria, John Hannah, Swoosie Kurtz, Mel Rodriguez, Fernando Luján, Cecilia Suárez, Mariana Treviño, Alyvia Alyn Lind, Hannah Nordberg, Emily Bruhn, Garry Chalk, Omar Chaparro, Nils Hognestad, Eric Keenleyside, Jesús Ochoa, Michael Karl Richards, Adrian Uribe, Edgar Vivar, Payton Lepinski
Productora: 3Pas Studios / Metro-Goldwyn-Mayer (MGM)
Género: Comedia. Romance | Remake. Comedia romántica. Familia

General
Complete name : Overboard.2018.HDRip.Latino.avi
Format : AVI
Format/Info : Audio Video Interleave
File size : 1.42 GiB
Duration : 1 h 52 min
Overall bit rate : 1 813 kb/s
Writing application : VirtualDubMod 1.5.10.2 (build 2540/release)
Writing library : VirtualDubMod build 2540/release
IsTruncated : Yes

Video
ID : 0
Format : MPEG-4 Visual
Format profile : Advanced Simple@L5
Format settings : BVOP2
Format settings, BVOP : 2
Format settings, QPel : No
Format settings, GMC : No warppoints
Format settings, Matrix : Default (H.263)
Muxing mode : Packed bitstream
Codec ID : XVID
Codec ID/Hint : XviD
Duration : 1 h 52 min
Bit rate : 1 355 kb/s
Width : 720 pixels
Height : 304 pixels
Display aspect ratio : 2.35:1
Frame rate : 23.976 (24000/1001) FPS
Color space : YUV
Chroma subsampling : 4:2:0
Bit depth : 8 bits
Scan type : Progressive
Compression mode : Lossy
Bits/(Pixel*Frame) : 0.258
Stream size : 1.06 GiB (75%)
Writing library : XviD 66

Audio
ID : 1
Format : AC-3
Format/Info : Audio Coding 3
Codec ID : 2000
Duration : 1 h 52 min
Bit rate mode : Constant
Bit rate : 448 kb/s
Channel(s) : 6 channels
Channel positions : Front: L C R, Side: L R, LFE
Sampling rate : 48.0 kHz
Frame rate : 31.250 FPS (1536 SPF)
Bit depth : 16 bits
Compression mode : Lossy
Stream size : 360 MiB (25%)
Alignment : Split accross interleaves
Interleave, duration : 42 ms (1.00 video frame)
Interleave, preload duratio : 500 ms
Service kind : Complete Main


Mensaje Privado
Cargando…
1.514 visitas


Categoria: Comedias, Romanticos
RSS Seguir Feed RSS Comentarios | Temas de EmaMedina





Deja tu comentario


Debes estar conectado para ver o escribir comentarios.



Terminos y Condiciones - Politica de Privacidad - Report Abuse - DMCA