Sep 14

Debbie, hermana de Danny Ocean, decide cometer el atraco del siglo en la gala Met anual que se celebra en Nueva York. El primer paso será conseguir al equipo criminal perfecto: Lou, Rose, Daphne Kluger, Nine Ball, Tammy, Amita y Constance.

Título original: Ocean’s Eightaka
Año: 2018
Duración: 110 min.
País: Estados Unidos Estados Unidos
Dirección: Gary Ross
Guion: Olivia Milch, Gary Ross
Música: Daniel Pemberton
Fotografía: Eigil Bryld
Reparto: Sandra Bullock, Cate Blanchett, Anne Hathaway, Helena Bonham Carter, Mindy Kaling, Rihanna, Awkwafina, Sarah Paulson, Dakota Fanning, Eric West, Denisa Juhos, Leonardo Collaguazo, Bridget Gabbe, Abigail Rich, Douglas Cafran, Olivia Munn, Richard Armitage, Katie Holmes, Common, James Corden, Kim Kardashian, Carl Reiner, Adriana Lima, Anna Wintour, Marko Caka, Carlo Sciortino, Doris McCarthy
Productora: Warner Bros. / Village Roadshow Pictures / Smoke House Pictures. Distribuida por 20th Century Fox
Género: Comedia. Acción | Crimen. Robos & Atracos

General
Unique ID : 210122006720169268714558510787717600556 (0x9E1406C6D99D0364A8791C5D6689952C)
Complete name : Ocean 8 – Las Estafadoras [1080p][Latino].mkv
Format : Matroska
Format version : Version 4 / Version 2
File size : 3.82 GiB
Duration : 1 h 50 min
Overall bit rate : 4 967 kb/s
Encoded date : UTC 2018-08-21 05:35:01
Writing application : mkvmerge v6.4.1 (‘Omega Point’) built on Sep 16 2013 22:05:10
Writing library : libebml v1.3.0 + libmatroska v1.4.1

Video
ID : 1
Format : AVC
Format/Info : Advanced Video Codec
Format profile : High@L4
Format settings : CABAC / 5 Ref Frames
Format settings, CABAC : Yes
Format settings, RefFrames : 5 frames
Codec ID : V_MPEG4/ISO/AVC
Duration : 1 h 50 min
Bit rate : 4 484 kb/s
Width : 1 920 pixels
Height : 804 pixels
Display aspect ratio : 2.40:1
Frame rate mode : Constant
Frame rate : 23.976 (24000/1001) FPS
Color space : YUV
Chroma subsampling : 4:2:0
Bit depth : 8 bits
Scan type : Progressive
Bits/(Pixel*Frame) : 0.121
Stream size : 3.45 GiB (90%)
Language : English
Default : Yes
Forced : No
Color range : Limited
Color primaries : BT.709
Transfer characteristics : BT.709
Matrix coefficients : BT.709
Statistics Tags Issue : mkvmerge v21.0.0 (‘Tardigrades Will Inherit The Earth’) 64-bit 2018-08-21 04:48:24 / mkvmerge v6.4.1 (‘Omega Point’) built on Sep 16 2013 22:05:10 2018-08-21 05:35:01
FromStats_BitRate : 4581348
FromStats_Duration : 01:50:07.726000000
FromStats_FrameCount : 158428
FromStats_StreamSize : 3784037351

Audio
ID : 2
Format : AC-3
Format/Info : Audio Coding 3
Format settings, Endianness : Big
Codec ID : A_AC3
Duration : 1 h 50 min
Bit rate mode : Constant
Bit rate : 384 kb/s
Channel(s) : 6 channels
Channel positions : Front: L C R, Side: L R, LFE
Sampling rate : 48.0 kHz
Frame rate : 31.250 FPS (1536 SPF)
Bit depth : 16 bits
Compression mode : Lossy
Delay relative to video : -42 ms
Stream size : 302 MiB (8%)
Title : Latino
Language : Spanish
Service kind : Complete Main
Default : Yes
Forced : Yes
Statistics Tags Issue : mkvmerge v21.0.0 (‘Tardigrades Will Inherit The Earth’) 64-bit 2018-08-21 04:48:24 / mkvmerge v6.4.1 (‘Omega Point’) built on Sep 16 2013 22:05:10 2018-08-21 05:35:01
FromStats_BitRate : 384000
FromStats_Duration : 01:50:07.744000000
FromStats_FrameCount : 206492
FromStats_StreamSize : 317171712

Text
ID : 3
Format : UTF-8
Codec ID : S_TEXT/UTF8
Codec ID/Info : UTF-8 Plain Text
Title : Forzados
Language : Spanish
Default : Yes
Forced : No
Statistics Tags Issue : mkvmerge v21.0.0 (‘Tardigrades Will Inherit The Earth’) 64-bit 2018-08-21 04:48:24 / mkvmerge v6.4.1 (‘Omega Point’) built on Sep 16 2013 22:05:10 2018-08-21 05:35:01
FromStats_BitRate : 3
FromStats_Duration : 01:39:49.573000000
FromStats_FrameCount : 88
FromStats_StreamSize : 2805

Menu
00:00:00.000 : en:1
00:11:17.000 : en:2
00:20:05.000 : en:3
00:31:36.000 : en:4
00:41:28.000 : en:5
00:49:17.000 : en:6
00:56:21.000 : en:7
01:05:48.000 : en:8
01:16:30.000 : en:9
01:27:00.000 : en:10
01:35:41.000 : en:11
01:44:07.000 : en:12

Un link sin comprimir

https://www.up-4.net/p7ibi2gy6q9o
http://ul.to/lm3nhqfg
https://www.mexashare.com/z34gx3oestpz

Enlaces intercambiables

http://katfile.com/y7qbetsu7kao/O.8-13-9.part1.rar.html
http://katfile.com/sm7byth83ttz/O.8-13-9.part2.rar.html
http://katfile.com/f9nt6vyzvdij/O.8-13-9.part3.rar.html
http://katfile.com/9i7vwwc9osz2/O.8-13-9.part4.rar.html
http://ul.to/ixg0m0fr
http://ul.to/o2t272f3
http://ul.to/8rg73gom
http://ul.to/bbz94mqq
https://www.mexashare.com/lb7jy2grvqzu
https://www.mexashare.com/5rgo2lal08ys
https://www.mexashare.com/f7j1xihn7zfq
https://www.mexashare.com/fogccqmgtc70
https://www.up-4.net/0qkxb2j7n75d
https://www.up-4.net/jvhfr0lkjxym
https://www.up-4.net/76ti4n911fca
https://www.up-4.net/jyt9s5fhuddo
https://openload.co/f/jgunhB4QcS8
https://openload.co/f/vkY1tNn3cew
https://openload.co/f/7q7UW8f2Obo
https://openload.co/f/ijJwGrITgnk

Ver Online

https://openload.co/f/ZNkuiqjQElQ


Mensaje Privado
Cargando…
684 visitas


Categoria: Acción, Comedias
RSS Seguir Feed RSS Comentarios | Temas de EmaMedina





Deja tu comentario


Debes estar conectado para ver o escribir comentarios.



Terminos y Condiciones - Politica de Privacidad - Report Abuse - DMCA