Jul 31

En un hospital psiquiátrico abandonado, un grupo de teatro vanguardista experimenta con el insomnio para la preparación del montaje de una obra creada veinte años atrás por un grupo de pacientes. Con el paso de los días sin dormir, alcanzan nuevos umbrales de percepción, que los enfrentan a energías e historias ocultas del lugar. Cuando Bianca, una joven promesa del teatro, se incorpora al elenco, en competencia por el papel principal, debe sobrevivir no solo a la intensidad del trabajo y sus compañeros, sino a una fuerza desconocida que la empuja, como a los demás, al trágico desenlace de la puesta en escena original.

Título original: No dormirás
Año: 2018
Duración: 105 min.
País: Uruguay Uruguay
Dirección: Gustavo Hernández
Guion: Juma Fodde
Música: Alfonso González Aguilar
Fotografía: Guillermo Nieto
Reparto: Eva De Dominici, Belén Rueda, Natalia de Molina, Germán Palacios, Eugenia Tobal, Susana Hornos, Juan Manuel Guilera, Joche Rubio, María Zabay, Miguel Angel Maciel
Productora: Coproducción Uruguay-Argentina-España; Pampa Films / FilmSharks International / Gloriamundi Producciones / INCAA / Bowfinger International Pictures / Tandem Films / Mother Superior / ICAA / ICAU / Tieless Media
Género: Terror. Thriller | Teatro. Sobrenatural

General
Complete name : n0.d0rm1r4s.2018.dvdrip.latino.mp4
Format : MPEG-4
Format profile : Base Media / Version 2
Codec ID : mp42 (isom/iso2/avc1/mp41)
File size : 1.59 GiB
Duration : 1 h 47 min
Overall bit rate mode : Variable
Overall bit rate : 2 124 kb/s
Encoded date : UTC 2018-07-20 11:55:58
Tagged date : UTC 2018-07-20 11:55:58
Writing application : HandBrake 1.0.7 2017040900

Video
ID : 1
Format : AVC
Format/Info : Advanced Video Codec
Format profile : Main@L4
Format settings : CABAC / 4 Ref Frames
Format settings, CABAC : Yes
Format settings, ReFrames : 4 frames
Codec ID : avc1
Codec ID/Info : Advanced Video Coding
Duration : 1 h 47 min
Bit rate : 2 000 kb/s
Width : 720 pixels
Height : 480 pixels
Display aspect ratio : 16:9
Original display aspect rat : 16:9
Frame rate mode : Variable
Frame rate : 23.976 (24000/1001) FPS
Minimum frame rate : 23.974 FPS
Maximum frame rate : 23.981 FPS
Color space : YUV
Chroma subsampling : 4:2:0
Bit depth : 8 bits
Scan type : Progressive
Bits/(Pixel*Frame) : 0.241
Stream size : 1.46 GiB (92%)
Writing library : x264 core 148 r2708 86b7198
Encoding settings : cabac=1 / ref=1 / deblock=1:0:0 / analyse=0x1:0x111 / me=hex / subme=2 / psy=1 / psy_rd=1.00:0.00 / mixed_ref=0 / me_range=16 / chroma_me=1 / trellis=0 / 8x8dct=0 / cqm=0 / deadzone=21,11 / fast_pskip=1 / chroma_qp_offset=0 / threads=12 / lookahead_threads=3 / sliced_threads=0 / nr=0 / decimate=1 / interlaced=0 / bluray_compat=0 / constrained_intra=0 / bframes=3 / b_pyramid=2 / b_adapt=1 / b_bias=0 / direct=1 / weightb=1 / open_gop=0 / weightp=1 / keyint=240 / keyint_min=24 / scenecut=40 / intra_refresh=0 / rc_lookahead=10 / rc=abr / mbtree=1 / bitrate=2000 / ratetol=1.0 / qcomp=0.60 / qpmin=0 / qpmax=69 / qpstep=4 / vbv_maxrate=20000 / vbv_bufsize=25000 / nal_hrd=none / filler=0 / ip_ratio=1.40 / aq=1:1.00
Encoded date : UTC 2018-07-20 11:55:58
Tagged date : UTC 2018-07-20 11:55:58
Color range : Limited
Color primaries : BT.601 NTSC
Transfer characteristics : BT.709
Matrix coefficients : BT.601

Audio
ID : 2
Format : AAC
Format/Info : Advanced Audio Codec
Format profile : LC
Codec ID : mp4a-40-2
Duration : 1 h 47 min
Bit rate mode : Variable
Bit rate : 160 kb/s
Channel(s) : 2 channels
Channel positions : Front: L R
Sampling rate : 48.0 kHz
Frame rate : 46.875 FPS (1024 SPF)
Compression mode : Lossy
Stream size : 123 MiB (8%)
Title : Stereo / Stereo
Language : Spanish
Default : Yes
Alternate group : 1
Encoded date : UTC 2018-07-20 11:55:58
Tagged date : UTC 2018-07-20 11:55:58

Un link sin comprimir

http://katfile.com/x0eud47019br
http://ul.to/9ascoehb
https://dailyuploads.net/k7eqdkqi1yda

Ver Online

https://openload.co/f/Pp6zDHzQE20


Mensaje Privado
Cargando…
909 visitas


Categoria: Terror
RSS Seguir Feed RSS Comentarios | Temas de EmaMedina





Deja tu comentario


Debes estar conectado para ver o escribir comentarios.



Terminos y Condiciones - Politica de Privacidad - Report Abuse - DMCA