Jul 27

Una familia queda prisionera en su propia casa cuando unos intrusos se hacen con la vivienda. Comienza entonces un juego de vida o muerte en el que hay misteriosas reglas que se desvelan a medida que avanza la noche. ¿Podrán sobrevivir a esta pesadilla? Dirigida por Sean Carter (The Killing Room), Keep Watching cuenta con un reparto formado por Bella Thorne (Juntos y revueltos), Chandler Riggs (El último gran día), Ioan Gruffudd (Los cuatro fantásticos), Natalie Martinez (La trama), Matthew Willig (La verdad duele) y Christopher James Baker (El santuario), entre otros.

Título original: Keep Watching
Año: 2017
Duración: 89 min.
País: Estados Unidos Estados Unidos
Dirección: Sean Carter
Guion: Joseph Dembner
Fotografía: Sharone Meir
Reparto: Bella Thorne, Natalie Martinez, Chandler Riggs, Ioan Gruffudd, Jared Abrahamson, Matthew Willig, Leigh Whannell, Christopher Baker, Carlos Arellano, April McCullough, Savannah Douglas
Productora: Voltage Pictures / Zinc Entertainment Inc
Género: Terror. Thriller

General
Complete name : Keep Watching (2017) 1080 Latino.mp4
Format : MPEG-4
Format profile : Base Media
Codec ID : isom (isom/iso2/avc1/mp41)
File size : 901 MiB
Duration : 1 h 29 min
Overall bit rate : 1 411 kb/s
Writing application : Lavf57.83.100

Video
ID : 1
Format : AVC
Format/Info : Advanced Video Codec
Format profile : High@L3.1
Format settings : CABAC / 5 Ref Frames
Format settings, CABAC : Yes
Format settings, ReFrames : 5 frames
Codec ID : avc1
Codec ID/Info : Advanced Video Coding
Duration : 1 h 29 min
Bit rate : 1 280 kb/s
Width : 1 920 pixels
Height : 1 080 pixels
Display aspect ratio : 16:9
Frame rate mode : Constant
Frame rate : 23.976 (24000/1001) FPS
Color space : YUV
Chroma subsampling : 4:2:0
Bit depth : 8 bits
Scan type : Progressive
Bits/(Pixel*Frame) : 0.026
Stream size : 817 MiB (91%)
Writing library : x264 core 148 r2643 5c65704
Encoding settings : cabac=1 / ref=5 / deblock=1:0:0 / analyse=0x3:0x113 / me=hex / subme=7 / psy=1 / psy_rd=1.00:0.00 / mixed_ref=1 / me_range=16 / chroma_me=1 / trellis=1 / 8x8dct=1 / cqm=0 / deadzone=21,11 / fast_pskip=1 / chroma_qp_offset=-2 / threads=8 / lookahead_threads=8 / sliced_threads=1 / slices=8 / nr=0 / decimate=1 / interlaced=0 / bluray_compat=0 / constrained_intra=0 / bframes=0 / weightp=2 / keyint=250 / keyint_min=23 / scenecut=40 / intra_refresh=0 / rc=2pass / mbtree=0 / bitrate=1280 / ratetol=1.0 / qcomp=0.60 / qpmin=0 / qpmax=69 / qpstep=4 / cplxblur=20.0 / qblur=0.5 / ip_ratio=1.40 / aq=1:1.00

Audio
ID : 2
Format : AAC
Format/Info : Advanced Audio Codec
Format profile : LC
Codec ID : mp4a-40-2
Duration : 1 h 29 min
Bit rate mode : Constant
Bit rate : 128 kb/s
Channel(s) : 2 channels
Channel positions : Front: L R
Sampling rate : 48.0 kHz
Frame rate : 46.875 FPS (1024 SPF)
Compression mode : Lossy
Stream size : 82.0 MiB (9%)
Language : Spanish
Default : Yes
Alternate group : 1

Un link sin comprimir

http://katfile.com/2enihqlbiac5
http://ul.to/6yo3vk3e
https://dailyuploads.net/7eaibc9am2h3

Ver Online

https://openload.co/f/XE3vzX2iCpc


Mensaje Privado
Cargando…
547 visitas


Categoria: Terror
RSS Seguir Feed RSS Comentarios | Temas de EmaMedina





Deja tu comentario


Debes estar conectado para ver o escribir comentarios.



Terminos y Condiciones - Politica de Privacidad - Report Abuse - DMCA