Oct 6

Narrado por el ganador del Premio de la Academia Robert Redford, National Parks Adventure lleva al público en la mejor aventura fuera del sendero hacia el maravilloso aire libre y salvaje de la nación. La cinematografía inmersiva IMAX 3D lleva a los televidentes volando sobre cañones de roca roja, subiendo picos escarpados y adentrándose en otros mundos que se encuentran dentro de los patios al aire libre más legendarios de Estados Unidos, como Yellowstone, el Parque Nacional Glacier, Yosemite y Arches. Celebre el 100 aniversario de los parques nacionales con el alpinista de clase mundial Conrad Anker, el fotógrafo de aventuras Max Lowe y la artista Rachel Pohl mientras recorren, escalan y exploran los majestuosos parques de Estados Unidos en una expedición llena de acción que inspirará al aventurero en todos nosotros.

Título original: National Parks Adventure
Año: 2016
Duración: 43 min.
País: Estados Unidos Estados Unidos
Dirección: Greg MacGillivray
Guion: Stephen Judson, Tim Cahill
Música: Steve Wood
Fotografía: Brad Ohlund
Reparto: Documentary, Robert Redford, Conrad Anker, Max Lowe, Rachel Pohl
Productora: MacGillivray Freeman Films
Género: Documental | Mediometraje. 3-D

General
Complete name : n4t10n4l.p4rks.4dv3ntur3.2016.hdrip.720p.latino.mp4
Format : MPEG-4
Format profile : Base Media / Version 2
Codec ID : mp42 (isom/iso2/avc1/mp41)
File size : 960 MiB
Duration : 43 min 25 s
Overall bit rate mode : Variable
Overall bit rate : 3 091 kb/s
Encoded date : UTC 2036-02-06 06:28:16
Tagged date : UTC 2036-02-06 06:28:16
Writing application : HandBrake 0.10.2 2015060900

Video
ID : 1
Format : AVC
Format/Info : Advanced Video Codec
Format profile : Main@L4
Format settings : CABAC / 4 Ref Frames
Format settings, CABAC : Yes
Format settings, RefFrames : 4 frames
Codec ID : avc1
Codec ID/Info : Advanced Video Coding
Duration : 43 min 25 s
Bit rate : 3 000 kb/s
Width : 1 280 pixels
Height : 720 pixels
Display aspect ratio : 16:9
Frame rate mode : Variable
Frame rate : 23.976 (24000/1001) FPS
Minimum frame rate : 23.810 FPS
Maximum frame rate : 24.390 FPS
Color space : YUV
Chroma subsampling : 4:2:0
Bit depth : 8 bits
Scan type : Progressive
Bits/(Pixel*Frame) : 0.136
Stream size : 908 MiB (95%)
Writing library : x264 core 142 r2479 dd79a61
Encoding settings : cabac=1 / ref=1 / deblock=1:0:0 / analyse=0x1:0x111 / me=hex / subme=2 / psy=1 / psy_rd=1.00:0.00 / mixed_ref=0 / me_range=16 / chroma_me=1 / trellis=0 / 8x8dct=0 / cqm=0 / deadzone=21,11 / fast_pskip=1 / chroma_qp_offset=0 / threads=12 / lookahead_threads=4 / sliced_threads=0 / nr=0 / decimate=1 / interlaced=0 / bluray_compat=0 / constrained_intra=0 / bframes=3 / b_pyramid=2 / b_adapt=1 / b_bias=0 / direct=1 / weightb=1 / open_gop=0 / weightp=1 / keyint=240 / keyint_min=24 / scenecut=40 / intra_refresh=0 / rc_lookahead=10 / rc=abr / mbtree=1 / bitrate=3000 / ratetol=1.0 / qcomp=0.60 / qpmin=0 / qpmax=69 / qpstep=4 / vbv_maxrate=20000 / vbv_bufsize=25000 / nal_hrd=none / filler=0 / ip_ratio=1.40 / aq=1:1.00
Encoded date : UTC 2036-02-06 06:28:16
Tagged date : UTC 2036-02-06 06:28:16
Color range : Limited
Color primaries : BT.709
Transfer characteristics : BT.709
Matrix coefficients : BT.709

Audio
ID : 2
Format : AAC
Format/Info : Advanced Audio Codec
Format profile : LC
Codec ID : mp4a-40-2
Duration : 43 min 25 s
Bit rate mode : Variable
Bit rate : 160 kb/s
Channel(s) : 2 channels
Channel positions : Front: L R
Sampling rate : 48.0 kHz
Frame rate : 46.875 FPS (1024 SPF)
Compression mode : Lossy
Stream size : 49.7 MiB (5%)
Title : Stereo / Stereo
Language : Spanish
Default : Yes
Alternate group : 1
Encoded date : UTC 2036-02-06 06:28:16
Tagged date : UTC 2036-02-06 06:28:16

Un link sin comprimir

http://katfile.com/9ec5wtb0vqmp/n4t10n4l.p4rks.4dv3ntur3.2016.hdrip.720p.latino.mp4.html
http://ul.to/rfgqgze4

Enlaces intercambiables

http://katfile.com/s6cdm593ampn/NPA-30-9.part1.rar.html
http://katfile.com/t43rc4h7v9zs/NPA-30-9.part2.rar.html
http://ul.to/2nmkue5v
http://ul.to/1904meoa
https://www.mexashare.com/1ld5ew6rtr6x/NPA-30-9.part1.rar.html
https://www.mexashare.com/8y9ohqd4ntwv/NPA-30-9.part2.rar.html
https://www.up-4.net/pvpy782gdllb
https://www.up-4.net/gnmxb8znxwmt
https://openload.co/f/LLPNicxKtsk
https://openload.co/f/Cqz9EARAka8

Ver online

https://openload.co/f/tdxdxAneXlM


Mensaje Privado
Cargando…
458 visitas

Categoria: Documentales
RSS Seguir Feed RSS Comentarios | Temas de EmaMedina

Leave a Reply

Please Login to comment
  Subscribe  
Notify of


Terminos y Condiciones - Politica de Privacidad - Report Abuse - DMCA