Sep 2

Sexta entrega de la saga. En esta ocasión presenta a Ethan Hunt (Tom Cruise) y su equipo IMF (Alec Baldwin, Simon Pegg, Ving Rhames), con algunos aliados conocidos (Rebecca Ferguson, Michelle Monaghan), en una lucha contrarreloj después de que una misión salga mal.

Título original: Mission: Impossible – Fallout
Año: 2018
Duración: 147 min.
País: Estados Unidos Estados Unidos
Dirección: Christopher McQuarrie
Guion: Christopher McQuarrie, Bruce Geller
Música: Lorne Balfe
Fotografía: Rob Hardy
Reparto: Tom Cruise, Rebecca Ferguson, Henry Cavill, Simon Pegg, Ving Rhames, Vanessa Kirby, Michelle Monaghan, Alec Baldwin, Angela Bassett, Sian Brooke, Sean Harris, Wes Bentley, Frederick Schmidt, Liang Yang, Kristoffer Joner
Productora: Paramount Pictures / Skydance Productions
Género: Thriller. Acción | Espionaje. Secuela

General
Complete name : Mission Impossible Fallout [HDTS][Latino].avi
Format : AVI
Format/Info : Audio Video Interleave
Format profile : OpenDML
File size : 1.86 GiB
Duration : 2 h 16 min
Overall bit rate : 1 948 kb/s
Writing application : Lavf53.32.100
Original source form/Name : Mission.Impossible.Fallout
IsTruncated : Yes

Video
ID : 0
Format : AVC
Format/Info : Advanced Video Codec
Format profile : High@L4.1
Format settings : CABAC / 2 Ref Frames
Format settings, CABAC : Yes
Format settings, RefFrames : 2 frames
Format settings, GOP : M=1, N=24
Codec ID : H264
Duration : 2 h 16 min
Bit rate : 1 743 kb/s
Width : 720 pixels
Height : 336 pixels
Display aspect ratio : 2.143
Frame rate : 23.976 (24000/1001) FPS
Color space : YUV
Chroma subsampling : 4:2:0
Bit depth : 8 bits
Scan type : Progressive
Bits/(Pixel*Frame) : 0.300
Stream size : 1.67 GiB (89%)
Writing library : x264 core
Color range : Limited
Color primaries : BT.601 NTSC
Transfer characteristics : BT.709
Matrix coefficients : BT.601

Audio
ID : 1
Format : MPEG Audio
Format version : Version 1
Format profile : Layer 3
Format settings : Joint stereo / MS Stereo
Mode : Joint stereo
Mode extension : MS Stereo
Codec ID : 55
Codec ID/Hint : MP3
Duration : 2 h 16 min
Bit rate mode : Constant
Bit rate : 192 kb/s
Channel(s) : 2 channels
Sampling rate : 48.0 kHz
Compression mode : Lossy
Stream size : 188 MiB (10%)
Alignment : Aligned on interleaves
Interleave, duration : 24 ms (0.58 video frame)

Un link sin comprimir

http://katfile.com/kkey2jjs9lmu
http://ul.to/ujbyn0jv

Enlaces intercambiables

http://katfile.com/9pkh7jf2zi6c/M.I.F-27-8.part1.rar.html
http://katfile.com/zuapqdqfaxl5/M.I.F-27-8.part2.rar.html
http://ul.to/69z725ns
http://ul.to/egb4w54e
https://openload.co/f/DuZW9jUr60g
https://openload.co/f/U_j1a0Lyf1g

Ver Online

https://openload.co/f/0NGEQv86h1Y


Mensaje Privado
Cargando…
2.457 visitas


Categoria: Acción
RSS Seguir Feed RSS Comentarios | Temas de EmaMedina





Deja tu comentario


Debes estar conectado para ver o escribir comentarios.



Terminos y Condiciones - Politica de Privacidad - Report Abuse - DMCA