Sep 19

James Silva (Mark Wahlberg) es un experimentado agente de la CIA, enviado a un país sospechoso de actividad nuclear ilegal. Cuando el funcionario local, LI (Iko Uwais), llega a la embajada de los EE. UU. buscando intercambiar información sobre material radioactivo robado a cambio de su paso seguro a los EE. UU., Silva tiene la tarea de transportarlo desde el centro de una ciudad, en una peligrosa misión, hasta una pista de aterrizaje a 22 millas de distancia.

Título original: Mile 22
Año: 2018
Duración: 95 min.
País: Estados Unidos Estados Unidos
Dirección: Peter Berg
Guion: Graham Roland, Lea Carpenter
Música: Jeff Russo
Fotografía: Jacques Jouffret
Reparto: Mark Wahlberg, John Malkovich, Ronda Rousey, Iko Uwais, Lauren Cohan
Productora: STX Entertainment / Closest to the Hole Productions / Film 44 / The Hideaway Entertainment
Género: Acción. Thriller

General
Complete name : Mile.22.TS.Latinook.avi
Format : AVI
Format/Info : Audio Video Interleave
File size : 1.45 GiB
Duration : 1 h 25 min
Overall bit rate : 2 434 kb/s
Writing application : VirtualDubMod 1.5.10.2 (build 2540/release)
Writing library : VirtualDubMod build 2540/release
IsTruncated : Yes

Video
ID : 0
Format : AVC
Format/Info : Advanced Video Codec
Format profile : High@L4.1
Format settings : CABAC / 2 Ref Frames
Format settings, CABAC : Yes
Format settings, RefFrames : 2 frames
Codec ID : H264
Duration : 1 h 25 min
Bit rate : 2 104 kb/s
Width : 720 pixels
Height : 262 pixels
Display aspect ratio : 2.748
Frame rate : 23.976 (24000/1001) FPS
Color space : YUV
Chroma subsampling : 4:2:0
Bit depth : 8 bits
Scan type : Progressive
Bits/(Pixel*Frame) : 0.465
Stream size : 1.25 GiB (86%)
Writing library : x264 core
Color range : Limited
Color primaries : BT.601 NTSC
Transfer characteristics : BT.709
Matrix coefficients : BT.601

Audio
ID : 1
Format : MPEG Audio
Format version : Version 1
Format profile : Layer 3
Format settings : Joint stereo / MS Stereo
Mode : Joint stereo
Mode extension : MS Stereo
Codec ID : 55
Codec ID/Hint : MP3
Duration : 1 h 25 min
Bit rate mode : Constant
Bit rate : 320 kb/s
Channel(s) : 2 channels
Sampling rate : 48.0 kHz
Compression mode : Lossy
Stream size : 195 MiB (13%)
Alignment : Split accross interleaves
Interleave, duration : 42 ms (1.00 video frame)
Interleave, preload duratio : 500 ms

Un link sin comprimir

http://katfile.com/xn9bpn10xs98/Mile.22.TS.Latinook.avi.html
https://www.mexashare.com/t3z52ib7qasb/Mile.22.TS.Latinook.avi.html
https://www.up-4.net/5vvpj14njwo7

Enlaces intercambiables

http://katfile.com/cbnqsok4slsi/M22-20-9.part1.rar.html
http://katfile.com/8bvimktlgjf0/M22-20-9.part2.rar.html
http://ul.to/aykwhdyx
http://ul.to/77qe4js4
https://openload.co/f/bvJq7cmC9sQ
https://openload.co/f/smaWMxD-2Kw

Ver Online

https://openload.co/f/1Iu8TKJwUGY


Mensaje Privado
Cargando…
1.208 visitas

Categoria: Acción
RSS Seguir Feed RSS Comentarios | Temas de EmaMedina

Leave a Reply

Please Login to comment
  Subscribe  
Notify of


Terminos y Condiciones - Politica de Privacidad - Report Abuse - DMCA