Sep 8

Un submarino de aguas profundas, que forma parte de un programa internacional, es atacado por una enorme criatura y queda averiado en el fondo de la fosa oceánica más profunda del Pacífico, con su tripulación atrapada en el interior. El tiempo se acaba y un oceanógrafo chino, el Dr. Chang, recluta a Jonas Taylor (Jason Statham), un especialista en rescate en aguas profundas, en contra de los deseos de su hija Suyin (Li Bingbing) que cree que puede rescatar a la tripulación por sus propios medios. Pero ambos deberán unir sus fuerzas para salvar a la tripulación y también al océano de una amenaza imparable: un tiburón prehistórico de 23 metros conocido con el nombre de Megalodón. Aunque se creía que estaba extinguido, el Meg está vivo y coleando… y está de caza. Cinco años antes, Jonas se había encontrado con esta misma criatura aterradora, pero nadie le creyó en ese momento. Ahora Jonas debe enfrentarse a sus miedos para volver a las profundidades marinas… donde volverá a verse cara a cara con el depredador más temible de todos los tiempos.

Título original: The Meg
Año: 2018
Duración: 113 min.
País: Estados Unidos Estados Unidos
Dirección: Jon Turteltaub
Guion: Belle Avery, Dean Georgaris, Erich Hoeber, Jon Hoeber, James Vanderbilt (Novela: Steve Alten)
Música: Harry Gregson-Williams
Fotografía: Tom Stern
Reparto: Jason Statham, Bingbing Li, Rainn Wilson, Ruby Rose, Winston Chao, Cliff Curtis, Robert Taylor, Masi Oka, Ólafur Darri Ólafsson, Jessica McNamee, Page Kennedy
Productora: Coproducción Estados Unidos-China; Apelles Entertainment / Gravity Pictures / Maeday Productions / Flagship Entertainment Group. Distribuida por Warner Bros
Género: Acción. Terror. Ciencia ficción | Tiburones. Monstruos

General
Complete name : Megalodon [TS][Latino].avi
Format : AVI
Format/Info : Audio Video Interleave
File size : 1.76 GiB
Duration : 1 h 43 min
Overall bit rate : 2 435 kb/s
Writing application : VirtualDubMod 1.5.10.2 (build 2540/release)
Writing library : VirtualDubMod build 2540/release

Video
ID : 0
Format : AVC
Format/Info : Advanced Video Codec
Format profile : High@L4.1
Format settings : CABAC / 2 Ref Frames
Format settings, CABAC : Yes
Format settings, RefFrames : 2 frames
Codec ID : H264
Duration : 1 h 43 min
Bit rate : 2 106 kb/s
Width : 720 pixels
Height : 244 pixels
Display aspect ratio : 2.951
Frame rate : 23.976 (24000/1001) FPS
Color space : YUV
Chroma subsampling : 4:2:0
Bit depth : 8 bits
Scan type : Progressive
Bits/(Pixel*Frame) : 0.500
Stream size : 1.53 GiB (86%)
Writing library : x264 core
Color range : Limited
Color primaries : BT.601 NTSC
Transfer characteristics : BT.709
Matrix coefficients : BT.601

Audio
ID : 1
Format : MPEG Audio
Format version : Version 1
Format profile : Layer 3
Format settings : Joint stereo / MS Stereo
Mode : Joint stereo
Mode extension : MS Stereo
Codec ID : 55
Codec ID/Hint : MP3
Duration : 1 h 43 min
Bit rate mode : Constant
Bit rate : 320 kb/s
Channel(s) : 2 channels
Sampling rate : 48.0 kHz
Compression mode : Lossy
Stream size : 237 MiB (13%)
Alignment : Split accross interleaves
Interleave, duration : 42 ms (1.00 video frame)
Interleave, preload duratio : 500 ms
Writing library : LAME3.99.5

Un link sin comprimir

http://katfile.com/3ajmgjzd33m0
http://ul.to/dnsitjqb
https://www.mexashare.com/uoe1hodybh3s
https://www.up-4.net/skn840xywk5v

Enlaces intercambiables

http://katfile.com/jgokkqr4ixnf/M-11-9.part1.rar.html
http://katfile.com/zktykf5dftro/M-11-9.part2.rar.html
http://ul.to/ly0bc1he
http://ul.to/7eqtjfld
https://www.mexashare.com/0vb6zq6b4647
https://www.mexashare.com/rqb3qfkopk68
https://www.up-4.net/2pw9kk4oud9y
https://www.up-4.net/5i6k768ioxd6
https://openload.co/f/_3QLLt3Iy2I
https://openload.co/f/3OK5UH5btPY

Ver Online

https://openload.co/f/g5o__DAa1Jo


Mensaje Privado
Cargando…
1.814 visitas


Categoria: Acción, Ciencia Ficción, Terror
RSS Seguir Feed RSS Comentarios | Temas de EmaMedina





Deja tu comentario


Debes estar conectado para ver o escribir comentarios.



Terminos y Condiciones - Politica de Privacidad - Report Abuse - DMCA