Sep 2

Los gemelos ingleses – irlandeses Rachel y Edward comparten una extraña existencia en el dilapiado caserío de su familia. Cada noche, la propiedad es dominada por una siniestra presencia que pone tres reglas a los gemelos: deben estar en sus camas antes de la media noche, no deben permitir que un extraño cruce la puerta, y si uno intenta escapar, la vida del otro está en peligro.

Título original: The Lodgers
Año: 2017
Duración: 92 min.
País: Irlanda Irlanda
Dirección: Brian O’Malley
Guion: David Turpin
Música: Kevin Murphy
Fotografía: Richard Kendrick
Reparto: Charlotte Vega, Bill Milner, Eugene Simon, David Bradley, Moe Dunford, Roisin Murphy, Deirdre O’Kane, Emmet Kelly, Emma Whelan, Tara Doyle
Productora: Tailored Films / Epic Pictures Group [USA] / Avatar Audio Post Production / Bowsie Workshop / Outer Limits Post Production / E-Color Studios / Point.360
Género: Terror | Casas encantadas. Años 20

General
Complete name : Los inquilinos [HDRip][Latino].avi
Format : AVI
Format/Info : Audio Video Interleave
Format profile : OpenDML
File size : 1.58 GiB
Duration : 1 h 33 min
Overall bit rate : 2 426 kb/s
Writing application : Lavf52.84.0

Video
ID : 0
Format : AVC
Format/Info : Advanced Video Codec
Format profile : Baseline@L3
Format settings : 2 Ref Frames
Format settings, CABAC : No
Format settings, RefFrames : 2 frames
Format settings, GOP : M=1, N=13
Codec ID : H264
Duration : 1 h 33 min
Bit rate : 2 100 kb/s
Width : 720 pixels
Height : 304 pixels
Display aspect ratio : 2.35:1
Frame rate mode : Variable
Frame rate : 23.976 (24000/1001) FPS
Color space : YUV
Chroma subsampling : 4:2:0
Bit depth : 8 bits
Scan type : Progressive
Bits/(Pixel*Frame) : 0.400
Stream size : 1.37 GiB (86%)
Writing library : x264 core 110
Encoding settings : cabac=0 / ref=2 / deblock=1:0:0 / analyse=0x1:0 / me=hex / subme=8 / psy=1 / psy_rd=1.00:0.00 / mixed_ref=1 / me_range=16 / chroma_me=0 / trellis=0 / 8x8dct=0 / cqm=0 / deadzone=21,11 / fast_pskip=1 / chroma_qp_offset=-2 / threads=8 / sliced_threads=0 / nr=0 / decimate=1 / interlaced=0 / constrained_intra=0 / bframes=0 / weightp=0 / keyint=13 / keyint_min=7 / scenecut=0 / intra_refresh=0 / rc_lookahead=13 / rc=abr / mbtree=1 / bitrate=2100 / ratetol=1.0 / qcomp=0.00 / qpmin=10 / qpmax=51 / qpstep=4 / ip_ratio=1.41 / aq=1:1.00

Audio
ID : 1
Format : AC-3
Format/Info : Audio Coding 3
Format settings, Endianness : Big
Codec ID : 2000
Duration : 1 h 33 min
Bit rate mode : Constant
Bit rate : 320 kb/s
Channel(s) : 2 channels
Channel positions : Front: L R
Sampling rate : 48.0 kHz
Frame rate : 31.250 FPS (1536 SPF)
Bit depth : 16 bits
Compression mode : Lossy
Stream size : 214 MiB (13%)
Alignment : Aligned on interleaves
Interleave, duration : 32 ms (0.77 video frame)
Interleave, preload duratio : 32 ms
Service kind : Complete Main

Un link sin comprimir

http://katfile.com/3ei4t866bzgh
http://ul.to/dveqvgzr

Enlaces intercambiables

http://katfile.com/cjp9qlsxqto4/L.I-1-9.part1.rar.html
http://katfile.com/w57r1rzc9o98/L.I-1-9.part2.rar.html
http://ul.to/9qsyjexd
http://ul.to/8bket06k
https://openload.co/f/IGQKsJlSvr0
https://openload.co/f/QmYojgeSG8Y

Ver Online

https://openload.co/f/aA_aTKIbdgM


Mensaje Privado
Cargando…
681 visitas


Categoria: Terror
RSS Seguir Feed RSS Comentarios | Temas de EmaMedina





Deja tu comentario


Debes estar conectado para ver o escribir comentarios.



Terminos y Condiciones - Politica de Privacidad - Report Abuse - DMCA