Ago 3

Cindy (Christina Hendricks) y Mike (Martin Henderson) se embarcan en un viaje por carretera y planean pasar una temporada en un campamento de remolques antes de dejar a su problemática hija Kinsey (Bailee Madison) en un internado. Pero el viaje se ve interrumpido por la llegada de tres psicópatas enmascarados que atacan y matan sin piedad.

Título original: The Strangers: Prey at Night
Año: 2018
Duración: 85 min.
País: Estados Unidos Estados Unidos
Dirección: Johannes Roberts
Guion: Bryan Bertino, Ben Ketai
Música: Adrian Johnston
Fotografía: Ryan Samul
Reparto: Christina Hendricks, Bailee Madison, Martin Henderson, Lewis Pullman, Leah Roberts, Emma Bellomy, Damian Maffei, Lea Enslin, Preston Sadleir
Productora: Intrepid Pictures / Mandate Pictures / Relativity Studios / thefyzz
Género: Terror. Thriller | Secuela. Slasher. Basado en hechos reales

General
Complete name : Extraños 2 [HDRip][Latino].avi
Format : AVI
Format/Info : Audio Video Interleave
File size : 1.50 GiB
Duration : 1 h 25 min
Overall bit rate : 2 504 kb/s
Writing application : VirtualDubMod 1.5.10.2 (build 2540/release)
Writing library : VirtualDubMod build 2540/release

Video
ID : 0
Format : AVC
Format/Info : Advanced Video Codec
Format profile : High@L4.1
Format settings : CABAC / 2 Ref Frames
Format settings, CABAC : Yes
Format settings, ReFrames : 2 frames
Codec ID : H264
Duration : 1 h 25 min
Bit rate : 2 046 kb/s
Width : 720 pixels
Height : 302 pixels
Display aspect ratio : 2.40:1
Frame rate : 23.976 (24000/1001) FPS
Color space : YUV
Chroma subsampling : 4:2:0
Bit depth : 8 bits
Scan type : Progressive
Bits/(Pixel*Frame) : 0.393
Stream size : 1.22 GiB (82%)
Writing library : x264 core
Color range : Limited
Color primaries : BT.601 NTSC
Transfer characteristics : BT.709
Matrix coefficients : BT.601

Audio
ID : 1
Format : AC-3
Format/Info : Audio Coding 3
Codec ID : 2000
Duration : 1 h 25 min
Bit rate mode : Constant
Bit rate : 448 kb/s
Channel(s) : 6 channels
Channel positions : Front: L C R, Side: L R, LFE
Sampling rate : 48.0 kHz
Frame rate : 31.250 FPS (1536 SPF)
Bit depth : 16 bits
Compression mode : Lossy
Stream size : 274 MiB (18%)
Alignment : Split accross interleaves
Interleave, duration : 42 ms (1.00 video frame)
Interleave, preload duratio : 500 ms
Service kind : Complete Main

Un link sin comprimir

http://katfile.com/mhj93t4nvfln
http://ul.to/l9ika5a4
https://dailyuploads.net/s8sm03jaxcqs

Enlaces intercambiables

http://katfile.com/1333bgy1w13h/1-29-7-18.part1.rar.html
http://katfile.com/xtdhqvkjebzd/1-29-7-18.part2.rar.html
http://ul.to/pg8ba2fv
http://ul.to/g144l6dq
https://dailyuploads.net/56u49ry7e7ks
https://dailyuploads.net/f0ppm549ej3w
https://openload.co/f/0PfcHjCJh9M
https://openload.co/f/F44tzWpI4tQ

Ver Online

https://openload.co/f/A7BD8WikNf8


Mensaje Privado
Cargando…
471 visitas


Categoria: Terror
RSS Seguir Feed RSS Comentarios | Temas de EmaMedina





Deja tu comentario


Debes estar conectado para ver o escribir comentarios.



Terminos y Condiciones - Politica de Privacidad - Report Abuse - DMCA