Sep 13

Un ateo vive una experiencia cercana a la muerte tras un accidente de coche y se convierte al cristianismo.

Título original: Let There Be Light
Año: 2017
Duración: 100 min.
País: Estados Unidos Estados Unidos
Dirección: Kevin Sorbo
Guion: Dan Gordon, Sam Jenkins
Música: Marc Vanocur
Reparto: Kevin Sorbo, Sam Jenkins, Daniel Roebuck, Donielle Artese, Gary Grubbs, Travis Tritt, Joe Herrera, Leander Suleiman, Walnette Marie Santiago, Olivia Fox, Dionne Warwick
Productora: LTBL Productions / Wildfire Films. Distribuida por Atlas Distribution Company
Género: Drama | Religión

General
Complete name : Let There Be Light [HDRip][Latino].avi
Format : AVI
Format/Info : Audio Video Interleave
Format profile : OpenDML
File size : 1.61 GiB
Duration : 1 h 40 min
Overall bit rate : 2 281 kb/s
Writing application : Lavf53.32.100
Original source form/Name : Let.There.Be.Light
IsTruncated : Yes

Video
ID : 0
Format : AVC
Format/Info : Advanced Video Codec
Format profile : High@L4.1
Format settings : CABAC / 2 Ref Frames
Format settings, CABAC : Yes
Format settings, RefFrames : 2 frames
Codec ID : H264
Duration : 1 h 40 min
Bit rate : 2 076 kb/s
Width : 720 pixels
Height : 306 pixels
Display aspect ratio : 2.35:1
Frame rate : 23.976 (24000/1001) FPS
Color space : YUV
Chroma subsampling : 4:2:0
Bit depth : 8 bits
Scan type : Progressive
Bits/(Pixel*Frame) : 0.393
Stream size : 1.46 GiB (91%)
Writing library : x264 core
Color range : Limited
Color primaries : BT.601 NTSC
Transfer characteristics : BT.709
Matrix coefficients : BT.601

Audio
ID : 1
Format : MPEG Audio
Format version : Version 1
Format profile : Layer 3
Format settings : Joint stereo / MS Stereo
Mode : Joint stereo
Mode extension : MS Stereo
Codec ID : 55
Codec ID/Hint : MP3
Duration : 1 h 40 min
Bit rate mode : Constant
Bit rate : 192 kb/s
Channel(s) : 2 channels
Sampling rate : 48.0 kHz
Compression mode : Lossy
Stream size : 139 MiB (8%)
Alignment : Aligned on interleaves
Interleave, duration : 24 ms (0.58 video frame)
Writing library : LAME3.99.5

Un link sin comprimir

http://katfile.com/sm7z268wybap
https://www.up-4.net/bdrelc89mnxb
https://www.mexashare.com/gkdvmooa5dmq
http://ul.to/71jcnntv

Enlaces intercambiables

http://katfile.com/0cep4pmq3tmh/L.T.B-10-9.part1.rar.html
http://katfile.com/w4yunxrc5dfr/L.T.B-10-9.part2.rar.html
https://www.up-4.net/srf63yghcrz4
https://www.up-4.net/9apj69vro7t1
https://www.mexashare.com/vijvo1k9xyas
https://www.mexashare.com/f5chaq2n1yqs
https://openload.co/f/bAC0OPmBvss
https://openload.co/f/a2ETFty95JA
http://ul.to/hhnpd143
http://ul.to/v7vivkwi

Ver Online

https://openload.co/f/DMtDUtsXXmA


Mensaje Privado
Cargando…
233 visitas


Categoria: Dramáticas
RSS Seguir Feed RSS Comentarios | Temas de EmaMedina





Deja tu comentario


Debes estar conectado para ver o escribir comentarios.



Terminos y Condiciones - Politica de Privacidad - Report Abuse - DMCA