Jul 27

Dos sicarios comparten una comida nocturna. Vincent tiene desde aperitivos hasta postres para convencer a McCarthy de que no lo mate.

Título original: Last Supper
Año: 2018
Duración: 77 min.
País: Estados Unidos Estados Unidos
Dirección: David Wexler
Guion: David Wexler
Música: Alex Weston
Fotografía: Jon Chen
Reparto: Jim Parrack, Michael Cristofer, Sam Hazeldine, Natalia Warner, Brianna Barnes, Jonathan Reed Wexler, Anthony J. Gallo, Sean Goldsmith
Productora: Cinema 59 Productions
Género: Thriller

General
Complete name : Last Supper (2018) SD Sub.mp4
Format : MPEG-4
Format profile : Base Media
Codec ID : isom (isom/iso2/avc1/mp41)
File size : 734 MiB
Duration : 1 h 17 min
Overall bit rate : 1 320 kb/s
Writing application : Lavf57.83.100

Video
ID : 1
Format : AVC
Format/Info : Advanced Video Codec
Format profile : High@L3.1
Format settings : CABAC / 5 Ref Frames
Format settings, CABAC : Yes
Format settings, ReFrames : 5 frames
Codec ID : avc1
Codec ID/Info : Advanced Video Coding
Duration : 1 h 17 min
Bit rate : 1 152 kb/s
Width : 1 280 pixels
Height : 554 pixels
Display aspect ratio : 16:9
Original display aspect rat : 16:9
Frame rate mode : Constant
Frame rate : 29.970 (30000/1001) FPS
Color space : YUV
Chroma subsampling : 4:2:0
Bit depth : 8 bits
Scan type : Progressive
Bits/(Pixel*Frame) : 0.054
Stream size : 641 MiB (87%)
Writing library : x264 core 148 r2643 5c65704
Encoding settings : cabac=1 / ref=5 / deblock=1:0:0 / analyse=0x3:0x113 / me=hex / subme=7 / psy=1 / psy_rd=1.00:0.00 / mixed_ref=1 / me_range=16 / chroma_me=1 / trellis=1 / 8x8dct=1 / cqm=0 / deadzone=21,11 / fast_pskip=1 / chroma_qp_offset=-2 / threads=8 / lookahead_threads=8 / sliced_threads=1 / slices=8 / nr=0 / decimate=1 / interlaced=0 / bluray_compat=0 / constrained_intra=0 / bframes=0 / weightp=2 / keyint=250 / keyint_min=25 / scenecut=40 / intra_refresh=0 / rc=abr / mbtree=0 / bitrate=1152 / ratetol=1.0 / qcomp=0.60 / qpmin=0 / qpmax=69 / qpstep=4 / ip_ratio=1.40 / aq=1:1.00

Audio
ID : 2
Format : AAC
Format/Info : Advanced Audio Codec
Format profile : LC
Codec ID : mp4a-40-2
Duration : 1 h 17 min
Bit rate mode : Constant
Bit rate : 159 kb/s
Channel(s) : 2 channels
Channel positions : Front: L R
Sampling rate : 48.0 kHz
Frame rate : 46.875 FPS (1024 SPF)
Compression mode : Lossy
Stream size : 88.6 MiB (12%)
Language : English
Default : Yes
Alternate group : 1

Un link sin comprimir

http://katfile.com/grjs38tdfd8k
http://ul.to/t6j1q1c3
https://dailyuploads.net/d6d4sdq24ygg

Ver Online

https://openload.co/f/Kbct_q-GOUU


Mensaje Privado
Cargando…
597 visitas


Categoria: Acción, Dramáticas, Suspenso y Misterio
RSS Seguir Feed RSS Comentarios | Temas de EmaMedina





Deja tu comentario


Debes estar conectado para ver o escribir comentarios.



Terminos y Condiciones - Politica de Privacidad - Report Abuse - DMCA