Ago 3

Extraños atrapados en una isla aislada luchan por sobrevivir contra hordas de muertos.

Título original: Isle of the Dead
Año: 2016
Duración: 90 min.
País: Estados Unidos Estados Unidos
Dirección: Nick Lyon
Guion: Jacob Cooney, Brandon Trenz
Música: Chris Ridenhour
Fotografía: Laura Beth Love
Reparto: Joseph Lawrence, Maryse Ouellet, D.C. Douglas, Kyle Butenhoff, Sydney Viengluang, Deon Lucas, Todd Cattell, Eric St. John, Paige Lauren Billiot, Dutch-Barre Johnson, Rydell Danzie, Josh Crotty, Douglas S. Matthews, Akanimo Eyo
Productora: Slightly Distorted Productions / The Asylum
Género: Acción. Terror | Zombis. Serie B

General
Complete name : Isle of the Dead [720p][Latino].mp4
Format : MPEG-4
Format profile : Base Media / Version 2
Codec ID : mp42 (isom/iso2/avc1/mp41)
File size : 1.31 GiB
Duration : 1 h 27 min
Overall bit rate mode : Variable
Overall bit rate : 2 141 kb/s
Encoded date : UTC 2018-07-23 05:13:29
Tagged date : UTC 2018-07-23 05:13:29
Writing application : HandBrake 1.0.7 2017040900

Video
ID : 1
Format : AVC
Format/Info : Advanced Video Codec
Format profile : Main@L4
Format settings : CABAC / 4 Ref Frames
Format settings, CABAC : Yes
Format settings, ReFrames : 4 frames
Codec ID : avc1
Codec ID/Info : Advanced Video Coding
Duration : 1 h 27 min
Bit rate : 2 000 kb/s
Width : 1 280 pixels
Height : 720 pixels
Display aspect ratio : 16:9
Frame rate mode : Variable
Frame rate : 23.976 (24000/1001) FPS
Minimum frame rate : 23.974 FPS
Maximum frame rate : 23.981 FPS
Color space : YUV
Chroma subsampling : 4:2:0
Bit depth : 8 bits
Scan type : Progressive
Bits/(Pixel*Frame) : 0.091
Stream size : 1.21 GiB (92%)
Writing library : x264 core 148 r2708 86b7198
Encoding settings : cabac=1 / ref=1 / deblock=1:0:0 / analyse=0x1:0x111 / me=hex / subme=2 / psy=1 / psy_rd=1.00:0.00 / mixed_ref=0 / me_range=16 / chroma_me=1 / trellis=0 / 8x8dct=0 / cqm=0 / deadzone=21,11 / fast_pskip=1 / chroma_qp_offset=0 / threads=12 / lookahead_threads=4 / sliced_threads=0 / nr=0 / decimate=1 / interlaced=0 / bluray_compat=0 / constrained_intra=0 / bframes=3 / b_pyramid=2 / b_adapt=1 / b_bias=0 / direct=1 / weightb=1 / open_gop=0 / weightp=1 / keyint=240 / keyint_min=24 / scenecut=40 / intra_refresh=0 / rc_lookahead=10 / rc=abr / mbtree=1 / bitrate=2000 / ratetol=1.0 / qcomp=0.60 / qpmin=0 / qpmax=69 / qpstep=4 / vbv_maxrate=20000 / vbv_bufsize=25000 / nal_hrd=none / filler=0 / ip_ratio=1.40 / aq=1:1.00
Encoded date : UTC 2018-07-23 05:13:29
Tagged date : UTC 2018-07-23 05:13:29
Color range : Limited
Color primaries : BT.709
Transfer characteristics : BT.709
Matrix coefficients : BT.709

Audio
ID : 2
Format : AAC
Format/Info : Advanced Audio Codec
Format profile : LC
Codec ID : mp4a-40-2
Duration : 1 h 27 min
Bit rate mode : Variable
Bit rate : 160 kb/s
Channel(s) : 2 channels
Channel positions : Front: L R
Sampling rate : 48.0 kHz
Frame rate : 46.875 FPS (1024 SPF)
Compression mode : Lossy
Stream size : 100 MiB (7%)
Title : Stereo / Stereo
Language : Spanish
Default : Yes
Alternate group : 1
Encoded date : UTC 2018-07-23 05:13:29
Tagged date : UTC 2018-07-23 05:13:29

Un link sin comprimir

http://katfile.com/bshugwjjf3hi
http://ul.to/cdl4vjy7
https://dailyuploads.net/st8hiwibf65e

Enlaces intercambiables

http://katfile.com/e6r9w3kixdnx/2-29-7-18.part1.rar.html
http://katfile.com/k2mtb4li2apn/2-29-7-18.part2.rar.html
http://ul.to/4d839sxa
http://ul.to/kilzjxwd
https://dailyuploads.net/mxwsiutv5k6w
https://dailyuploads.net/1dcy3aifto1w
https://openload.co/f/gOUQn46BP6M
https://openload.co/f/RWLaXFBTNzw

Ver Online

https://openload.co/f/NWDiHR3icEk


Mensaje Privado
Cargando…
646 visitas


Categoria: Acción, Terror
RSS Seguir Feed RSS Comentarios | Temas de EmaMedina





Deja tu comentario


Debes estar conectado para ver o escribir comentarios.



Terminos y Condiciones - Politica de Privacidad - Report Abuse - DMCA