Sep 19

Los Ángeles, año 2018. El Hotel Artemis es un hospital exclusivo para delincuentes, regentado por Jean Thomas (Jodie Foster) y ceñido a unas reglas muy estrictas. Cuando el centro es atacado, dará paso a una espiral de violencia difícil de contener.

Título original: Hotel Artemis
Año: 2018
Duración: 97 min.
País: Reino Unido Reino Unido
Dirección: Drew Pearce
Guion: Drew Pearce
Música: Cliff Martinez
Fotografía: Chung Chung-hoon
Reparto: Jodie Foster, Sterling K. Brown, Sofia Boutella, Jeff Goldblum, Brian Tyree Henry, Jenny Slate, Zachary Quinto, Charlie Day, Dave Bautista, Kenneth Choi, Noelle Therese Mulligan, Baldeep Singh
Productora: The Ink Factory / Point of No Return
Género: Ciencia ficción. Thriller

General
Complete name : Hotel.Artemis.TS.Latinook.avi
Format : AVI
Format/Info : Audio Video Interleave
File size : 1.45 GiB
Duration : 1 h 25 min
Overall bit rate : 2 436 kb/s
Writing application : VirtualDubMod 1.5.10.2 (build 2540/release)
Writing library : VirtualDubMod build 2540/release
Original source form/Name : Hotel.Artemis

Video
ID : 0
Format : AVC
Format/Info : Advanced Video Codec
Format profile : High@L4.1
Format settings : CABAC / 2 Ref Frames
Format settings, CABAC : Yes
Format settings, RefFrames : 2 frames
Codec ID : H264
Duration : 1 h 25 min
Bit rate : 2 104 kb/s
Width : 720 pixels
Height : 252 pixels
Display aspect ratio : 2.857
Frame rate : 29.970 (30000/1001) FPS
Color space : YUV
Chroma subsampling : 4:2:0
Bit depth : 8 bits
Scan type : Progressive
Bits/(Pixel*Frame) : 0.387
Stream size : 1.25 GiB (86%)
Writing library : x264 core
Color range : Limited
Color primaries : BT.601 NTSC
Transfer characteristics : BT.709
Matrix coefficients : BT.601

Audio
ID : 1
Format : MPEG Audio
Format version : Version 1
Format profile : Layer 3
Format settings : Joint stereo
Mode : Joint stereo
Codec ID : 55
Codec ID/Hint : MP3
Duration : 1 h 25 min
Bit rate mode : Constant
Bit rate : 320 kb/s
Channel(s) : 2 channels
Sampling rate : 48.0 kHz
Compression mode : Lossy
Stream size : 195 MiB (13%)
Alignment : Split accross interleaves
Interleave, duration : 33 ms (1.00 video frame)
Interleave, preload duratio : 500 ms
Writing library : LAME

Un link sin comprimir

http://katfile.com/ot8prxfvnzof/Hotel.Artemis.TS.Latinook.avi.html
https://www.mexashare.com/9gcvl9pg8bks/Hotel.Artemis.TS.Latinook.avi.html
https://www.up-4.net/ix1w2ca7i1bs

Enlaces intercambiables

http://katfile.com/d3ejeqayn70h/HA-20-9.part1.rar.html
http://katfile.com/fucifi0hxhgb/HA-20-9.part2.rar.html
http://ul.to/ouqobtgq
http://ul.to/99jc6nil


Mensaje Privado
Cargando…
1.023 visitas

Categoria: Ciencia Ficción
RSS Seguir Feed RSS Comentarios | Temas de EmaMedina

Leave a Reply

Please Login to comment
  Subscribe  
Notify of


Terminos y Condiciones - Politica de Privacidad - Report Abuse - DMCA