Sep 3

El escéptico profesor Phillip Goodman se embarca en un viaje hacia lo terrorífico tras encontrarse un archivo con detalles de tres casos inexplicables de apariciones.

Título original: Ghost Stories
Año: 2017
Duración: 98 min.
País: Reino Unido Reino Unido
Dirección: Jeremy Dyson, Andy Nyman
Guion: Jeremy Dyson, Andy Nyman
Música: Haim Frank Ilfman
Fotografía: Ole Bratt Birkeland
Reparto: Martin Freeman, Alex Lawther, Jill Halfpenny, Andy Nyman, Paul Whitehouse, Nicholas Burns, Daniel Hill, Kobna Holdbrook-Smith, Jake Davies, Ryan Oliva, Derren Brown, Samuel Bottomley, Lesley Harcourt, Oliver Woollford, Maggie McCarthy, Paul Warren, Emily Carding, Amy Doyle, Ramzan Miah, Louise Atkins, Billy Sneddon, Callum Goulden, Christine Dalby, Benji Ming, Deborah Wastell, Elaine Dyson, Joe Osborne, Maria Major, Macie Allen, Richard Waring
Productora: Warp Films / Altitude Film Entertainment / Catalyst Global Media / Lionsgate. Distribuida por IFC Midnight [USA]
Género: Terror. Drama

General
Complete name : Ghost Stories [BRScr][Latino].avi
Format : AVI
Format/Info : Audio Video Interleave
Format profile : OpenDML
File size : 1.45 GiB
Duration : 1 h 31 min
Overall bit rate : 2 279 kb/s
Writing application : Lavf53.32.100
Original source form/Name : Ghost.Stories
IsTruncated : Yes

Video
ID : 0
Format : AVC
Format/Info : Advanced Video Codec
Format profile : High@L4.1
Format settings : CABAC / 2 Ref Frames
Format settings, CABAC : Yes
Format settings, RefFrames : 2 frames
Codec ID : H264
Duration : 1 h 31 min
Bit rate : 2 072 kb/s
Width : 720 pixels
Height : 308 pixels
Display aspect ratio : 2.35:1
Frame rate : 23.976 (24000/1001) FPS
Color space : YUV
Chroma subsampling : 4:2:0
Bit depth : 8 bits
Scan type : Progressive
Bits/(Pixel*Frame) : 0.390
Stream size : 1.32 GiB (91%)
Writing library : x264 core
Color range : Limited
Color primaries : BT.601 NTSC
Transfer characteristics : BT.709
Matrix coefficients : BT.601

Audio
ID : 1
Format : MPEG Audio
Format version : Version 1
Format profile : Layer 3
Format settings : Joint stereo / MS Stereo
Mode : Joint stereo
Mode extension : MS Stereo
Codec ID : 55
Codec ID/Hint : MP3
Duration : 1 h 31 min
Bit rate mode : Constant
Bit rate : 192 kb/s
Channel(s) : 2 channels
Sampling rate : 48.0 kHz
Compression mode : Lossy
Stream size : 125 MiB (8%)
Alignment : Aligned on interleaves
Interleave, duration : 24 ms (0.58 video frame)
Writing library : LAME3.99.5

Un link sin comprimir

http://katfile.com/4uditm7tbtzn
http://ul.to/pt8pcmpj

Enlaces intercambiables

http://katfile.com/jmpbvt89jfg4/G.S-2-9.part1.rar.html
http://katfile.com/a2wavg2egufa/G.S-2-9.part2.rar.html
http://ul.to/do70f867
http://ul.to/pb6i06vr
https://openload.co/f/qhPsx55F4hA
https://openload.co/f/X-W3LKryTxU

Ver Online

https://openload.co/f/0BRmi6Wp1Uo


Mensaje Privado
Cargando…
895 visitas


Categoria: Dramáticas, Terror
RSS Seguir Feed RSS Comentarios | Temas de EmaMedina





Deja tu comentario


Debes estar conectado para ver o escribir comentarios.



Terminos y Condiciones - Politica de Privacidad - Report Abuse - DMCA