Jul 31

El comediante mexicano Franco Escamilla saca sus chistes de las experiencias de la vida real y está dispuesto a hacer cualquier cosa por el nuevo material. Él no tiene miedo de hacer generalizaciones sobre cómo los hombres se bañan. Pero tiene miedo de hablar con extraños. Especialmente en los funerales.

Título original: Franco Escamilla: Por la anécdota
Año: 2018
Duración: 66 min.
País: México México
Dirección: Ulises Valencia
Guion: Franco Escamilla
Reparto: Franco Escamilla
Productora: Distribuida por Netflix
Género: Comedia | Stand-Up

General
Unique ID : 205740793154800873521153294572106713973 (0x9AC83C454385F32399921690AE8E8B75)
Complete name : Fr4nco Escamilla Por la Anécdota (2018) 1080p LATINO.mkv
Format : Matroska
Format version : Version 4 / Version 2
File size : 1.38 GiB
Duration : 1 h 6 min
Overall bit rate : 2 944 kb/s
Encoded date : UTC 2018-07-17 02:34:11
Writing application : mkvmerge v6.4.1 (‘Omega Point’) built on Sep 16 2013 22:05:10
Writing library : libebml v1.3.0 + libmatroska v1.4.1

Video
ID : 1
Format : AVC
Format/Info : Advanced Video Codec
Format profile : Main@L4
Format settings : CABAC / 2 Ref Frames
Format settings, CABAC : Yes
Format settings, ReFrames : 2 frames
Format settings, GOP : M=1, N=12
Codec ID : V_MPEG4/ISO/AVC
Duration : 1 h 6 min
Bit rate : 2 502 kb/s
Width : 1 920 pixels
Height : 1 080 pixels
Display aspect ratio : 16:9
Frame rate mode : Constant
Frame rate : 23.976 (24000/1001) FPS
Color space : YUV
Chroma subsampling : 4:2:0
Bit depth : 8 bits
Scan type : Progressive
Bits/(Pixel*Frame) : 0.050
Stream size : 1.17 GiB (85%)
Default : Yes
Forced : No
Statistics Tags Issue : mkvmerge v15.0.0 (‘Duel with the Devil’) 64-bit 2018-07-15 20:58:09 / mkvmerge v6.4.1 (‘Omega Point’) built on Sep 16 2013 22:05:10 2018-07-17 02:34:11
FromStats_BitRate : 2581980
FromStats_Duration : 01:06:21.607000000
FromStats_FrameCount : 95463
FromStats_StreamSize : 1285053883

Audio
ID : 2
Format : AC-3
Format/Info : Audio Coding 3
Codec ID : A_AC3
Duration : 1 h 6 min
Bit rate mode : Constant
Bit rate : 384 kb/s
Channel(s) : 6 channels
Channel positions : Front: L C R, Side: L R, LFE
Sampling rate : 48.0 kHz
Frame rate : 31.250 FPS (1536 SPF)
Bit depth : 16 bits
Compression mode : Lossy
Stream size : 184 MiB (13%)
Title : Latino
Language : Spanish
Service kind : Complete Main
Default : Yes
Forced : No
Statistics Tags Issue : mkvmerge v15.0.0 (‘Duel with the Devil’) 64-bit 2018-07-15 20:58:09 / mkvmerge v6.4.1 (‘Omega Point’) built on Sep 16 2013 22:05:10 2018-07-17 02:34:11
FromStats_BitRate : 384000
FromStats_Duration : 01:06:58.752000000
FromStats_FrameCount : 125586
FromStats_StreamSize : 192900096

Text
ID : 3
Format : UTF-8
Codec ID : S_TEXT/UTF8
Codec ID/Info : UTF-8 Plain Text
Title : Latino [CC]
Language : Spanish
Default : No
Forced : No
Statistics Tags Issue : mkvmerge v15.0.0 (‘Duel with the Devil’) 64-bit 2018-07-15 20:58:09 / mkvmerge v6.4.1 (‘Omega Point’) built on Sep 16 2013 22:05:10 2018-07-17 02:34:11
FromStats_BitRate : 92
FromStats_Duration : 01:05:29.384000000
FromStats_FrameCount : 1177
FromStats_StreamSize : 45339

Un link sin comprimir

http://katfile.com/c9nvtv2m36rw
http://ul.to/6t4adb1l
https://dailyuploads.net/om8p449vm029

Ver Online

https://openload.co/f/lJ6SRC5QJMM


Mensaje Privado
Cargando…
533 visitas


Categoria: Comedias
RSS Seguir Feed RSS Comentarios | Temas de EmaMedina





Deja tu comentario


Debes estar conectado para ver o escribir comentarios.



Terminos y Condiciones - Politica de Privacidad - Report Abuse - DMCA