Jul 24

Knock, un ex carterista arrepentido se convierte en médico, y llega al pequeño pueblo de Saint-Maurice para aplicar un “método” destinado a hacerle rico: va a convencer a la gente de que todo sano es un enfermo que ignora que lo es. Y para ello, debe encontrar a cada uno la enfermedad real o imaginaria de la que sufre. Maestro en el arte de la seducción y de la manipulación, Knock está a punto de alcanzar sus fines.

Título original: Knock
Año: 2017
Duración: 113 min.
País: Francia Francia
Dirección: Lorraine Levy
Guion: Novela: Jules Romains
Música: Cyrille Aufort
Fotografía: Emmanuel Soyer
Reparto: Omar Sy, Ana Girardot, Alex Lutz, Hélène Vincent, Pascal Elbé, Audrey Dana, Chantal Lauby, Christian Hecq, Sabine Azéma
Productora: Curiosa Films / Moana Films
Género: Comedia | Medicina. Años 50

General
Complete name : El Doctor de la Felicidad [HDrip][Latino].avi
Format : AVI
Format/Info : Audio Video Interleave
File size : 1.84 GiB
Duration : 1 h 53 min
Overall bit rate : 2 309 kb/s
Writing application : VirtualDubMod 1.5.10.2 (build 2540/release)
Writing library : VirtualDubMod build 2540/release
Video
ID : 0
Format : AVC
Format/Info : Advanced Video Codec
Format profile : High@L4.1
Format settings : CABAC / 2 Ref Frames
Format settings, CABAC : Yes
Format settings, ReFrames : 2 frames
Codec ID : H264
Duration : 1 h 53 min
Bit rate : 2 108 kb/s
Width : 720 pixels
Height : 304 pixels
Display aspect ratio : 2.35:1
Frame rate : 23.976 (24000/1001) FPS
Color space : YUV
Chroma subsampling : 4:2:0
Bit depth : 8 bits
Scan type : Progressive
Bits/(Pixel*Frame) : 0.402
Stream size : 1.68 GiB (91%)
Writing library : x264 core
Color range : Limited
Color primaries : BT.601 NTSC
Transfer characteristics : BT.709
Matrix coefficients : BT.601
Audio
ID : 1
Format : AC-3
Format/Info : Audio Coding 3
Codec ID : 2000
Duration : 1 h 53 min
Bit rate mode : Constant
Bit rate : 192 kb/s
Channel(s) : 2 channels
Channel positions : Front: L R
Sampling rate : 48.0 kHz
Frame rate : 31.250 FPS (1536 SPF)
Bit depth : 16 bits
Compression mode : Lossy
Stream size : 156 MiB (8%)
Alignment : Split accross interleaves
Interleave, duration : 42 ms (1.00 video frame)
Interleave, preload duratio : 500 ms
Service kind : Complete Main

Un link sin comprimir

http://katfile.com/1xx4f6v2zksf
https://dailyuploads.net/ows34u2b8jul
http://ul.to/088zad71

Ver Online

https://openload.co/f/M4FKVD4cOoY


Mensaje Privado
Cargando…
535 visitas


Categoria: Comedias
RSS Seguir Feed RSS Comentarios | Temas de EmaMedina





Deja tu comentario


Debes estar conectado para ver o escribir comentarios.



Terminos y Condiciones - Politica de Privacidad - Report Abuse - DMCA