Sep 19

Año 1988. En el pueblo de El Amparo, en la frontera de Venezuela con Colombia, dos hombres sobreviven a un ataque armado perpetrado en los caños del Río Arauca, donde 14 de sus compañeros mueren en el acto. El ejército los acusa de guerrilleros y, con intimidaciones, intenta sacarlos de la celda donde son custodiados por un policía y por la gente del pueblo, que trata desesperadamente de impedir que se los lleven. Ellos dicen que son simples pescadores, pero las presiones para ceder ante la versión oficial son abrumadoras.

Título original: El amparo
Año: 2016
Duración: 101 min.
País: Venezuela Venezuela
Dirección: Rober Calzadilla
Guion: Karin Valecillos
Fotografía: Michell Rivas
Reparto: Vicente Quintero, Giovanny García, Vicente Peña, Samantha Castillo, Rossana Hernández, Ángel Pájaro, Tatiana Mabo, Jesús Carreño
Productora: Coproducción Venezuela-Colombia; Tumbarracho Films / Películas Prescindibles / Cajanegra Producciones
Género: Drama. Bélico | Años 80

General
Complete name : 3l.4mp4r0.2016.hdrip.720p.latino.mp4
Format : MPEG-4
Format profile : Base Media / Version 2
Codec ID : mp42 (isom/iso2/avc1/mp41)
File size : 1.47 GiB
Duration : 1 h 38 min
Overall bit rate mode : Variable
Overall bit rate : 2 131 kb/s
Encoded date : UTC 2036-02-06 06:28:16
Tagged date : UTC 2036-02-06 06:28:16
Writing application : HandBrake 0.10.2 2015060900

Video
ID : 1
Format : AVC
Format/Info : Advanced Video Codec
Format profile : Main@L4
Format settings : CABAC / 4 Ref Frames
Format settings, CABAC : Yes
Format settings, RefFrames : 4 frames
Codec ID : avc1
Codec ID/Info : Advanced Video Coding
Duration : 1 h 38 min
Bit rate : 2 000 kb/s
Width : 1 280 pixels
Height : 534 pixels
Display aspect ratio : 2.40:1
Original display aspect rat : 2.40:1
Frame rate mode : Variable
Frame rate : 23.976 FPS
Minimum frame rate : 23.810 FPS
Maximum frame rate : 24.390 FPS
Color space : YUV
Chroma subsampling : 4:2:0
Bit depth : 8 bits
Scan type : Progressive
Bits/(Pixel*Frame) : 0.122
Stream size : 1.35 GiB (92%)
Writing library : x264 core 142 r2479 dd79a61
Encoding settings : cabac=1 / ref=1 / deblock=1:0:0 / analyse=0x1:0x111 / me=hex / subme=2 / psy=1 / psy_rd=1.00:0.00 / mixed_ref=0 / me_range=16 / chroma_me=1 / trellis=0 / 8x8dct=0 / cqm=0 / deadzone=21,11 / fast_pskip=1 / chroma_qp_offset=0 / threads=12 / lookahead_threads=4 / sliced_threads=0 / nr=0 / decimate=1 / interlaced=0 / bluray_compat=0 / constrained_intra=0 / bframes=3 / b_pyramid=2 / b_adapt=1 / b_bias=0 / direct=1 / weightb=1 / open_gop=0 / weightp=1 / keyint=240 / keyint_min=24 / scenecut=40 / intra_refresh=0 / rc_lookahead=10 / rc=abr / mbtree=1 / bitrate=2000 / ratetol=1.0 / qcomp=0.60 / qpmin=0 / qpmax=69 / qpstep=4 / vbv_maxrate=20000 / vbv_bufsize=25000 / nal_hrd=none / filler=0 / ip_ratio=1.40 / aq=1:1.00
Encoded date : UTC 2036-02-06 06:28:16
Tagged date : UTC 2036-02-06 06:28:16
Color range : Limited
Color primaries : BT.709
Transfer characteristics : BT.709
Matrix coefficients : BT.709

Audio
ID : 2
Format : AAC
Format/Info : Advanced Audio Codec
Format profile : LC
Codec ID : mp4a-40-2
Duration : 1 h 38 min
Bit rate mode : Variable
Bit rate : 160 kb/s
Channel(s) : 2 channels
Channel positions : Front: L R
Sampling rate : 48.0 kHz
Frame rate : 46.875 FPS (1024 SPF)
Compression mode : Lossy
Stream size : 113 MiB (8%)
Title : Stereo / Stereo
Language : Spanish
Default : Yes
Alternate group : 1
Encoded date : UTC 2036-02-06 06:28:16
Tagged date : UTC 2036-02-06 06:28:16

Un link sin comprimir

http://katfile.com/tfg4z7u3cpjz/3l.4mp4r0.2016.hdrip.720p.latino.mp4.html
https://www.mexashare.com/yr2js1ngp80c/3l.4mp4r0.2016.hdrip.720p.latino.mp4.html
https://www.up-4.net/k3xk3v33iwzw
http://ul.to/7p40xxvy

Enlaces intercambiables

http://katfile.com/h15vw8cld00b/E.A-20-9.part1.rar.html
http://katfile.com/lbncomn5rrwa/E.A-20-9.part2.rar.html
http://ul.to/dtxd09je
http://ul.to/57q9y1tj


Mensaje Privado
Cargando…
568 visitas

Categoria: Bélicas, Dramáticas
RSS Seguir Feed RSS Comentarios | Temas de EmaMedina

Leave a Reply

Please Login to comment
  Subscribe  
Notify of


Terminos y Condiciones - Politica de Privacidad - Report Abuse - DMCA