Sep 1

Durante un paseo, unos criminales secuestran a una mujer y atacan a su esposo, quien debe recurrir a toda su fuerza para rescatarla.

Título original: Edge of Fear
Año: 2018
Duración: 91 min.
País: Estados Unidos Estados Unidos
Dirección: Bobby Roth
Guion: Scott Barkan, Gregg Zehentner (Historia: Daxing Zhang)
Fotografía: Tom Camarda
Reparto: Shen Lin, Robert Patrick, Zhu Zhu, Rockmond Dunbar, Robert Knepper, Dean Cudworth, Robert Crayton, Thom Williams, Nick J. McNeil, Stacy Hall, Amaury Nolasco, Andy Mackenzie, Jodi Lyn O’Keefe, John Edward Lee, Trent Brya
Productora: Hollywood Media Bridge / Parkside Pictures / RRE Media
Género: Thriller | Secuestros / Desapariciones

General
Unique ID : 245905880304300549265372461913814315118 (0xB8FFBFF56056D4F087165E2400E7B06E)
Complete name : Edge of Fear [1080p][Latino].mkv
Format : Matroska
Format version : Version 4 / Version 2
File size : 4.58 GiB
Duration : 1 h 31 min
Overall bit rate mode : Variable
Overall bit rate : 7 166 kb/s
Movie name : Edge of Fear [1080p]
Encoded date : UTC 2018-08-01 04:08:24
Writing application : mkvmerge v6.4.1 (‘Omega Point’) built on Sep 16 2013 22:05:10
Writing library : libebml v1.3.0 + libmatroska v1.4.1

Video
ID : 1
Format : AVC
Format/Info : Advanced Video Codec
Format profile : Main@L4
Format settings : CABAC / 3 Ref Frames
Format settings, CABAC : Yes
Format settings, RefFrames : 3 frames
Codec ID : V_MPEG4/ISO/AVC
Duration : 1 h 31 min
Bit rate mode : Variable
Bit rate : 6 810 kb/s
Maximum bit rate : 10.2 Mb/s
Width : 1 920 pixels
Height : 1 080 pixels
Display aspect ratio : 16:9
Frame rate mode : Constant
Frame rate : 23.976 (24000/1001) FPS
Color space : YUV
Chroma subsampling : 4:2:0
Bit depth : 8 bits
Scan type : Progressive
Bits/(Pixel*Frame) : 0.137
Stream size : 4.25 GiB (93%)
Writing library : x264 core 148 r2715 7e75228
Encoding settings : cabac=1 / ref=3 / deblock=1:0:0 / analyse=0x1:0x111 / me=umh / subme=10 / psy=1 / psy_rd=1.00:0.00 / mixed_ref=1 / me_range=24 / chroma_me=1 / trellis=2 / 8x8dct=0 / cqm=0 / deadzone=21,11 / fast_pskip=1 / chroma_qp_offset=-2 / threads=8 / lookahead_threads=1 / sliced_threads=0 / nr=0 / decimate=1 / interlaced=0 / bluray_compat=0 / stitchable=1 / constrained_intra=0 / bframes=2 / b_pyramid=0 / b_adapt=2 / b_bias=0 / direct=3 / weightb=1 / open_gop=0 / weightp=2 / keyint=48 / keyint_min=25 / scenecut=0 / intra_refresh=0 / rc_lookahead=48 / rc=2pass / mbtree=1 / bitrate=6810 / ratetol=1.0 / qcomp=0.50 / qpmin=6 / qpmax=51 / qpstep=4 / cplxblur=20.0 / qblur=0.5 / vbv_maxrate=10215 / vbv_bufsize=13620 / nal_hrd=vbr / filler=0 / ip_ratio=1.40 / aq=1:1.00
Default : Yes
Forced : No
Statistics Tags Issue : mkvmerge v16.0.0 (‘Protest’) 32-bit 2018-08-01 03:32:42 / mkvmerge v6.4.1 (‘Omega Point’) built on Sep 16 2013 22:05:10 2018-08-01 04:08:24
FromStats_BitRate : 6780151
FromStats_Duration : 01:31:33.780000000
FromStats_FrameCount : 131719
FromStats_StreamSize : 4656082752

Audio
ID : 2
Format : AC-3
Format/Info : Audio Coding 3
Format settings, Endianness : Big
Codec ID : A_AC3
Duration : 1 h 31 min
Bit rate mode : Constant
Bit rate : 384 kb/s
Channel(s) : 6 channels
Channel positions : Front: L C R, Side: L R, LFE
Sampling rate : 48.0 kHz
Frame rate : 31.250 FPS (1536 SPF)
Bit depth : 16 bits
Compression mode : Lossy
Stream size : 251 MiB (5%)
Title : Español latino
Language : Spanish
Service kind : Complete Main
Default : No
Forced : No
Statistics Tags Issue : mkvmerge v16.0.0 (‘Protest’) 32-bit 2018-08-01 03:32:42 / mkvmerge v6.4.1 (‘Omega Point’) built on Sep 16 2013 22:05:10 2018-08-01 04:08:24
FromStats_BitRate : 384000
FromStats_Duration : 01:31:33.920000000
FromStats_FrameCount : 171685
FromStats_StreamSize : 263708160

Text
ID : 3
Format : UTF-8
Codec ID : S_TEXT/UTF8
Codec ID/Info : UTF-8 Plain Text
Title : Español latino[Forzados]
Language : Spanish
Default : No
Forced : Yes
Statistics Tags Issue : mkvmerge v16.0.0 (‘Protest’) 32-bit 2018-08-01 03:32:42 / mkvmerge v6.4.1 (‘Omega Point’) built on Sep 16 2013 22:05:10 2018-08-01 04:08:24
FromStats_BitRate : 1
FromStats_Duration : 01:28:00.567000000
FromStats_FrameCount : 70
FromStats_StreamSize : 1091

Un link sin comprimir

http://ul.to/iudschq6

Enlaces intercambiables

http://katfile.com/4cvf6tlar9du/1080p-18-8-18.part1.rar.html
http://katfile.com/fbd6wsbfz0hp/1080p-18-8-18.part2.rar.html
http://katfile.com/kgasvrynuhsg/1080p-18-8-18.part3.rar.html
http://katfile.com/wns9g4jmzjkb/1080p-18-8-18.part4.rar.html
http://katfile.com/aewhrj1hvc6n/1080p-18-8-18.part5.rar.html
http://ul.to/vnzake0h
http://ul.to/5vstkg6r
http://ul.to/pdpatyek
http://ul.to/stqh9b6p
http://ul.to/6z9ugb36
https://openload.co/f/YaIf64Hc3iA
https://openload.co/f/xyGZsm1nUCA
https://openload.co/f/FUWq_sR9yNM
https://openload.co/f/Lezu_TPhzWw
https://openload.co/f/QGr4Gzjja4I
https://openload.co/f/TFjdyYRQ9sU

Ver Online

https://openload.co/f/x8JQ8PXGKk0


Mensaje Privado
Cargando…
823 visitas


Categoria: Acción, Suspenso y Misterio
RSS Seguir Feed RSS Comentarios | Temas de EmaMedina





Deja tu comentario


Debes estar conectado para ver o escribir comentarios.



Terminos y Condiciones - Politica de Privacidad - Report Abuse - DMCA