Sep 13

La localidad de Devil’s Gate, en Dakota del Norte, hace honor a su nombre: en ella ocurren sucesos extraños, como la desaparición de Maria y de su hijo, investigada por una agente del FBI. Todas las pistas apuntan al taciturno esposo de Maria, pero el caso no tarda en revelar algo terrible bajo su superficie.

Título original: Devil’s Gate
Año: 2017
Duración: 94 min.
País: Canadá Canadá
Dirección: Clay Staub
Guion: Peter Aperlo, Clay Staub
Música: Keefus Ciancia
Fotografía: Miroslaw Baszak
Reparto: Milo Ventimiglia, Bridget Regan, Amanda Schull, Javier Botet, Shawn Ashmore, Jonathan Frakes, Spencer Drever, Adam Hurtig, Sarah Constible, Beverly Ndukwu, Scott Johnson, Will Woytowich, Jean-François Ferland, Jan Skene
Productora: Caramel Film / Mednick Productions
Género: Ciencia ficción. Thriller

General
Complete name : Devils Gate [BRScr][Latino].avi
Format : AVI
Format/Info : Audio Video Interleave
Format profile : OpenDML
File size : 1.51 GiB
Duration : 1 h 34 min
Overall bit rate : 2 289 kb/s
Writing application : Lavf53.32.100
Original source form/Name : Devils.Gate

Video
ID : 0
Format : AVC
Format/Info : Advanced Video Codec
Format profile : High@L4.1
Format settings : CABAC / 2 Ref Frames
Format settings, CABAC : Yes
Format settings, RefFrames : 2 frames
Codec ID : H264
Duration : 1 h 34 min
Bit rate : 2 083 kb/s
Width : 720 pixels
Height : 310 pixels
Display aspect ratio : 2.35:1
Frame rate : 23.976 (24000/1001) FPS
Color space : YUV
Chroma subsampling : 4:2:0
Bit depth : 8 bits
Scan type : Progressive
Bits/(Pixel*Frame) : 0.389
Stream size : 1.37 GiB (91%)
Writing library : x264 core
Color range : Limited
Color primaries : BT.601 NTSC
Transfer characteristics : BT.709
Matrix coefficients : BT.601

Audio
ID : 1
Format : MPEG Audio
Format version : Version 1
Format profile : Layer 3
Format settings : Joint stereo / MS Stereo
Mode : Joint stereo
Mode extension : MS Stereo
Codec ID : 55
Codec ID/Hint : MP3
Duration : 1 h 34 min
Bit rate mode : Constant
Bit rate : 192 kb/s
Channel(s) : 2 channels
Sampling rate : 48.0 kHz
Compression mode : Lossy
Stream size : 129 MiB (8%)
Alignment : Aligned on interleaves
Interleave, duration : 24 ms (0.58 video frame)
Writing library : LAME3.99.5

Un link sin comprimir

http://katfile.com/d2w59drk9b9f
https://www.up-4.net/e04vf0smyjvy
https://www.mexashare.com/7o20cr992o4n
http://ul.to/4qhvghrg

Enlaces intercambiables

http://katfile.com/38vasb14fu29/D.G-12-9.part1.rar.html
http://katfile.com/0qeghqakiud6/D.G-12-9.part2.rar.html
https://www.up-4.net/j0x4urefi9ap
https://www.up-4.net/stw6kq8ei7ao
https://www.mexashare.com/v97la0e13mf6
https://www.mexashare.com/mjj5ydq4jq4t
https://openload.co/f/-3CrpS1KleM
https://openload.co/f/Mbk0a6tB3KY
http://ul.to/04hc941j
http://ul.to/aptoe12p

Ver Online

https://openload.co/f/EVF10bozKYo


Mensaje Privado
Cargando…

Categoria: Ciencia Ficción
RSS Seguir Feed RSS Comentarios | Temas de EmaMedina



Deja tu comentario


Debes estar conectado para ver o escribir comentarios.



Terminos y Condiciones - Politica de Privacidad - Report Abuse - DMCA