Ago 30

Wade Wilson (Ryan Reynolds), mejor conocido como Deadpool, su nombre de batalla e identidad antiheroica, está de regreso con Deadpool 2 y en esta ocasión su misión será salvar a un chico llamado Russell (Julian Dennison) de las manos de un poderoso rival llamado Cable (Josh Brolin). En aras de dar cumplimiento a su tarea el antihéroe formará un grupo al cual pondrá el nombre de X-Force. Secuela de la exitosa película (recaudó más de 780 millones de dólares en todo el mundo) parodia de los superhéroes mutantes del 2016, también protagonizada por Reynolds.

Título original: Deadpool 2
Año: 2018
Duración: 111 min.
País: Estados Unidos Estados Unidos
Dirección: David Leitch
Guion: Rhett Reese, Paul Wernick, Ryan Reynolds (Cómic: Rob Liefeld, Fabian Nicieza)
Música: Tyler Bates
Fotografía: Jonathan Sela
Reparto: Ryan Reynolds, Josh Brolin, Zazie Beetz, Morena Baccarin, Julian Dennison, T.J. Miller, Karan Soni, Brianna Hildebrand, Leslie Uggams, Jack Kesy, Eddie Marsan, Lewis Tan, Bill Skarsgård, Brad Pitt, Rob Delaney, Terry Crews, Shiori Kutsuna, Hayley Sales, Luke Roessler, Scott Vickaryous, Tanis Dolman, Nikolai Witschl, Andréa Vawda
Productora: Marvel Entertainment / 20th Century Fox / Donners’ Company / Kinberg Genre. Productor: Ryan Reynolds
Género: Acción. Fantástico. Comedia | Superhéroes. Marvel Comics. Cómic. Secuela

General
Unique ID : 170316028578402112237134742118368048825 (0x8021AC87A5E9A05FB6513B63253076B9)
Complete name : Deadpool 2 [1080p][Latino].mkv
Format : Matroska
Format version : Version 4 / Version 2
File size : 3.98 GiB
Duration : 1 h 59 min
Overall bit rate : 4 766 kb/s
Encoded date : UTC 2018-08-07 08:56:41
Writing application : mkvmerge v6.4.1 (‘Omega Point’) built on Sep 16 2013 22:05:10
Writing library : libebml v1.3.0 + libmatroska v1.4.1

Video
ID : 1
Format : AVC
Format/Info : Advanced Video Codec
Format profile : High@L4
Format settings : CABAC / 5 Ref Frames
Format settings, CABAC : Yes
Format settings, RefFrames : 5 frames
Codec ID : V_MPEG4/ISO/AVC
Duration : 1 h 59 min
Bit rate : 4 415 kb/s
Width : 1 920 pixels
Height : 804 pixels
Display aspect ratio : 2.40:1
Frame rate mode : Constant
Frame rate : 23.976 (24000/1001) FPS
Color space : YUV
Chroma subsampling : 4:2:0
Bit depth : 8 bits
Scan type : Progressive
Bits/(Pixel*Frame) : 0.119
Stream size : 3.68 GiB (93%)
Language : English
Default : Yes
Forced : No
Color range : Limited
Color primaries : BT.709
Transfer characteristics : BT.709
Matrix coefficients : BT.709

Audio
ID : 2
Format : AC-3
Format/Info : Audio Coding 3
Format settings, Endianness : Big
Codec ID : A_AC3
Duration : 1 h 59 min
Bit rate mode : Constant
Bit rate : 256 kb/s
Channel(s) : 2 channels
Channel positions : Front: L R
Sampling rate : 48.0 kHz
Frame rate : 31.250 FPS (1536 SPF)
Bit depth : 16 bits
Compression mode : Lossy
Delay relative to video : -43 ms
Stream size : 219 MiB (5%)
Language : Spanish
Service kind : Complete Main
Default : Yes
Forced : No

Menu
00:00:00.000 : en:Chapter 01
00:02:30.692 : en:Chapter 02
00:05:52.435 : en:Chapter 03
00:08:10.656 : en:Chapter 04
00:11:29.563 : en:Chapter 05
00:14:51.097 : en:Chapter 06
00:16:19.977 : en:Chapter 07
00:20:23.512 : en:Chapter 08
00:21:59.524 : en:Chapter 09
00:26:33.464 : en:Chapter 10
00:31:39.770 : en:Chapter 11
00:35:15.944 : en:Chapter 12
00:38:59.375 : en:Chapter 13
00:41:48.919 : en:Chapter 14
00:46:15.226 : en:Chapter 15
00:50:29.021 : en:Chapter 16
00:53:55.060 : en:Chapter 17
00:56:26.419 : en:Chapter 18
00:58:24.703 : en:Chapter 19
01:00:25.031 : en:Chapter 20
01:03:58.285 : en:Chapter 21
01:07:56.481 : en:Chapter 22
01:09:37.456 : en:Chapter 23
01:13:26.810 : en:Chapter 24
01:17:48.112 : en:Chapter 25
01:20:55.007 : en:Chapter 26
01:24:04.905 : en:Chapter 27
01:26:20.332 : en:Chapter 28
01:29:27.894 : en:Chapter 29
01:31:40.276 : en:Chapter 30
01:33:25.339 : en:Chapter 31
01:35:28.295 : en:Chapter 32
01:38:53.541 : en:Chapter 33
01:42:15.159 : en:Chapter 34
01:45:18.008 : en:Chapter 35
01:48:59.562 : en:Chapter 36

Un link sin comprimir

http://ul.to/bh9ohm40
https://dailyuploads.net/mt7iq9cwqqcx

Enlaces intercambiables

Katfile
http://katfile.com/t0zx6galhl6f/D2-18-8-18.part1.rar.html
http://katfile.com/8xgpvpptx31c/D2-18-8-18.part2.rar.html
http://katfile.com/un1noxxzdu94/D2-18-8-18.part3.rar.html
http://katfile.com/zo8naoka2dmp/D2-18-8-18.part4.rar.html
Uploaded

http://ul.to/sdu67ptd
http://ul.to/d9pja9y0
http://ul.to/l76fqazr
http://ul.to/mpko7sys
Openload

https://openload.co/f/KGMBFTetqC4
https://openload.co/f/kLT0WKE3PbM
https://openload.co/f/-LhE4kjH318
https://openload.co/f/yShQKZup4Oc
Dailyuploads

https://dailyuploads.net/2xxmbtxijcq6
https://dailyuploads.net/0792mysr6o4k
https://dailyuploads.net/vhbmh9j541ty
https://dailyuploads.net/ko90vd6iih21

Ver Online

https://openload.co/f/Wi_dbbkrVG4


Mensaje Privado
Cargando…
537 visitas


Categoria: Acción, Comedias, Fantasia
RSS Seguir Feed RSS Comentarios | Temas de EmaMedina





Deja tu comentario


Debes estar conectado para ver o escribir comentarios.



Terminos y Condiciones - Politica de Privacidad - Report Abuse - DMCA