Sep 14

Gente que desaparece sin dejar rastros, muertos que vuelven de sus tumbas, voces que se escuchan en los drenajes de agua, entes invisibles que asesinan personas, movimientos magnéticos que no tienen explicación.

Título original: Aterradosaka
Año: 2017
Duración: 87 min.
País: Argentina Argentina
Dirección: Demián Rugna
Guion: Demián Rugna
Fotografía: Mariano Suárez
Reparto: Maxi Ghione, Norberto Amadeo Gonzalo, Elvira Onetto, George Lewis, Agustín Rittano
Productora: Machaco Films / INCAA
Género: Terror | Sobrenatural. Thriller psicológico

General
Complete name : Aterrados [HDRip][Latino].avi
Format : AVI
Format/Info : Audio Video Interleave
Format profile : OpenDML
File size : 1.40 GiB
Duration : 1 h 27 min
Overall bit rate : 2 287 kb/s
Writing application : Lavf53.32.100
Original source form/Name : Aterrados

Video
ID : 0
Format : AVC
Format/Info : Advanced Video Codec
Format profile : High@L4.1
Format settings : CABAC / 2 Ref Frames
Format settings, CABAC : Yes
Format settings, RefFrames : 2 frames
Codec ID : H264
Duration : 1 h 27 min
Bit rate : 2 083 kb/s
Width : 720 pixels
Height : 404 pixels
Display aspect ratio : 16:9
Frame rate : 23.976 (24000/1001) FPS
Color space : YUV
Chroma subsampling : 4:2:0
Bit depth : 8 bits
Scan type : Progressive
Bits/(Pixel*Frame) : 0.299
Stream size : 1.28 GiB (91%)
Writing library : x264 core
Color range : Limited
Color primaries : BT.601 NTSC
Transfer characteristics : BT.709
Matrix coefficients : BT.601

Audio
ID : 1
Format : AC-3
Format/Info : Audio Coding 3
Format settings, Endianness : Big
Codec ID : 2000
Duration : 1 h 27 min
Bit rate mode : Constant
Bit rate : 192 kb/s
Channel(s) : 2 channels
Channel positions : Front: L R
Sampling rate : 48.0 kHz
Frame rate : 31.250 FPS (1536 SPF)
Bit depth : 16 bits
Compression mode : Lossy
Stream size : 120 MiB (8%)
Alignment : Aligned on interleaves
Interleave, duration : 32 ms (0.77 video frame)
Service kind : Complete Main

Un link sin comprimir

http://katfile.com/48goe9edfyd0/Aterrados__5BHDRip_5D_5BLatino_5D.avi.html
http://ul.to/4tziscsj
https://www.up-4.net/vrsq8beci2g3
https://www.mexashare.com/2j109v9qweyg

Enlaces intercambiables

http://katfile.com/p1hpnzmz7cm2/A-12-9.part1.rar.html
http://katfile.com/qu8zwjbhh4m3/A-12-9.part2.rar.html
http://ul.to/yix3qivm
http://ul.to/hi9mwhtp
https://www.up-4.net/bhta6de5zfko
https://www.up-4.net/51z2le9jthch
https://www.mexashare.com/w6v6b58on1ea
https://www.mexashare.com/yh7kml5nt8y5
https://openload.co/f/qR0_L7GTRw8
https://openload.co/f/j7lOGBgWji8

Ver Online

https://openload.co/f/dve5o2cRpOc


Mensaje Privado
Cargando…
625 visitas


Categoria: Terror
RSS Seguir Feed RSS Comentarios | Temas de EmaMedina





Deja tu comentario


Debes estar conectado para ver o escribir comentarios.



Terminos y Condiciones - Politica de Privacidad - Report Abuse - DMCA