Ago 30

Shaun (Gabrielle Union) es una madre de dos hijos que acaba de perder a su padre. Como legado, hereda una casa en Malibu, por lo que decide mudarse allí junto a los pequeños. En la mansión hay cuatro inquilinos no deseados que tratan de hacerse con la caja de caudales del padre de Shaun y escapar con todo lo que lleva dentro. Los atracadores secuestran a los niños y dejan a la madre fuera de la casa, que resulta ser una fortaleza, pero no se quedará de brazos cruzados. A partir de aquí, comienza la pesadilla de la familia, o de los secuestradores…

Título original: Breaking In
Año: 2018
Duración: 88 min.
País: Estados Unidos Estados Unidos
Dirección: James McTeigue
Guion: Ryan Engle
Música: Johnny Klimek
Fotografía: Toby Oliver
Reparto: Gabrielle Union, Billy Burke, Richard Cabral, Ajiona Alexus, Levi Meaden, Seth Carr, Mark Furze, Jason George, Christa Miller, Damien Leake
Productora: Will Packer Productions / Breaking In Pictures. Distribuida por Universal Pictures
Género: Thriller | Crimen. Secuestros / Desapariciones

General
Complete name : Asalto en la noche [HDRip][Latino].avi
Format : AVI
Format/Info : Audio Video Interleave
Format profile : OpenDML
File size : 1.44 GiB
Duration : 1 h 28 min
Overall bit rate : 2 339 kb/s
Writing application : Lavf52.84.0

Video
ID : 0
Format : AVC
Format/Info : Advanced Video Codec
Format profile : Baseline@L3
Format settings : 2 Ref Frames
Format settings, CABAC : No
Format settings, RefFrames : 2 frames
Format settings, GOP : M=1, N=13
Codec ID : H264
Duration : 1 h 28 min
Bit rate : 2 200 kb/s
Width : 720 pixels
Height : 302 pixels
Display aspect ratio : 2.40:1
Frame rate mode : Variable
Frame rate : 24.000 FPS
Color space : YUV
Chroma subsampling : 4:2:0
Bit depth : 8 bits
Scan type : Progressive
Bits/(Pixel*Frame) : 0.422
Stream size : 1.36 GiB (94%)
Writing library : x264 core 110
Encoding settings : cabac=0 / ref=2 / deblock=1:0:0 / analyse=0x1:0 / me=hex / subme=8 / psy=1 / psy_rd=1.00:0.00 / mixed_ref=1 / me_range=16 / chroma_me=0 / trellis=0 / 8x8dct=0 / cqm=0 / deadzone=21,11 / fast_pskip=1 / chroma_qp_offset=-2 / threads=8 / sliced_threads=0 / nr=0 / decimate=1 / interlaced=0 / constrained_intra=0 / bframes=0 / weightp=0 / keyint=13 / keyint_min=7 / scenecut=0 / intra_refresh=0 / rc_lookahead=13 / rc=abr / mbtree=1 / bitrate=2200 / ratetol=1.0 / qcomp=0.00 / qpmin=10 / qpmax=51 / qpstep=4 / ip_ratio=1.41 / aq=1:1.00

Audio
ID : 1
Format : AC-3
Format/Info : Audio Coding 3
Format settings, Endianness : Big
Codec ID : 2000
Duration : 1 h 28 min
Bit rate mode : Constant
Bit rate : 128 kb/s
Channel(s) : 2 channels
Channel positions : Front: L R
Sampling rate : 48.0 kHz
Frame rate : 31.250 FPS (1536 SPF)
Bit depth : 16 bits
Compression mode : Lossy
Stream size : 80.9 MiB (5%)
Alignment : Aligned on interleaves
Interleave, duration : 32 ms (0.77 video frame)
Interleave, preload duratio : 32 ms
Service kind : Complete Main

Un link sin comprimir

http://katfile.com/hp3k2ag2qhl0
http://ul.to/948yan5e
https://dailyuploads.net/jy1dqf17uapf

Enlaces intercambiables

Katfile
http://katfile.com/ff9uzy26tqyj
http://katfile.com/2zdrqdsp1b8t
Uploaded

http://ul.to/ssstmisj
http://ul.to/279cw83s
Openload

https://openload.co/f/NJph5NNK1Aw
https://openload.co/f/vIyOL17eeeo
Dailyuploads

https://dailyuploads.net/wrzqepor6hpd
https://dailyuploads.net/160bb3uddaei

Ver Online

https://openload.co/f/udTqobyLPfs


Mensaje Privado
Cargando…
1.187 visitas


Categoria: Acción, Dramáticas
RSS Seguir Feed RSS Comentarios | Temas de EmaMedina





Deja tu comentario


Debes estar conectado para ver o escribir comentarios.



Terminos y Condiciones - Politica de Privacidad - Report Abuse - DMCA