Sep 14

Después de convertirse en mejores amigos, un castor y un gato emprenden una misión peligrosa para liberar a sus compañeros animales, que fueron secuestrados por extraterrestres.

Título original: Dva khvosta (Two Tails)
Año: 2018
Duración: 75 min.
País: Rusia Rusia
Dirección: Victor Azeev
Guion: Vasiliy Rovenskiy
Fotografía: Animation
Reparto: Animation
Productora: Licensing Brands
Género: Animación. Comedia. Infantil | Animales. Extraterrestres

General
Complete name : Animales.En.Apuros.BRS.Latino.avi
Format : AVI
Format/Info : Audio Video Interleave
Format profile : OpenDML
File size : 1.19 GiB
Duration : 1 h 14 min
Overall bit rate : 2 286 kb/s
Writing application : Lavf53.32.100
Original source form/Name : Animales.En.Apuros
IsTruncated : Yes

Video
ID : 0
Format : AVC
Format/Info : Advanced Video Codec
Format profile : High@L4.1
Format settings : CABAC / 2 Ref Frames
Format settings, CABAC : Yes
Format settings, RefFrames : 2 frames
Codec ID : H264
Duration : 1 h 14 min
Bit rate : 2 078 kb/s
Width : 720 pixels
Height : 410 pixels
Display aspect ratio : 16:9
Frame rate : 23.976 (24000/1001) FPS
Color space : YUV
Chroma subsampling : 4:2:0
Bit depth : 8 bits
Scan type : Progressive
Bits/(Pixel*Frame) : 0.294
Stream size : 1.08 GiB (91%)
Writing library : x264 core
Color range : Limited
Color primaries : BT.601 NTSC
Transfer characteristics : BT.709
Matrix coefficients : BT.601

Audio
ID : 1
Format : MPEG Audio
Format version : Version 1
Format profile : Layer 3
Format settings : Joint stereo
Mode : Joint stereo
Codec ID : 55
Codec ID/Hint : MP3
Duration : 1 h 14 min
Bit rate mode : Constant
Bit rate : 192 kb/s
Channel(s) : 2 channels
Sampling rate : 48.0 kHz
Compression mode : Lossy
Stream size : 102 MiB (8%)
Alignment : Aligned on interleaves
Interleave, duration : 24 ms (0.58 video frame)
Writing library : LAME3.99.5

Un link sin comprimir

http://katfile.com/cadr9d3nyo7e/Animales.En.Apuros.BRS.Latino.avi.html
https://www.up-4.net/md6y806to3bx
https://www.mexashare.com/a8s4bao2ffnn
http://ul.to/4noyha0j

Enlaces intercambiables

http://katfile.com/i98p8dkzx58t/A.e.A-12-9.part1.rar.html
http://katfile.com/uplbxq0v8kha/A.e.A-12-9.part2.rar.html
https://www.mexashare.com/fjxs6yesxo4m
https://www.mexashare.com/h197l1kst9ad
https://www.up-4.net/c5md0t7u25do
https://www.up-4.net/u2sfkgpsk5pi
https://openload.co/f/VvIf6qJ5YaM
https://openload.co/f/EmiSVmibFog
http://ul.to/bxc18l90
http://ul.to/g94pid7v

Ver Online

https://openload.co/f/kwM8OTh4uLQ


Mensaje Privado
Cargando…
855 visitas


Categoria: Animación, Comedias, Infantiles y Familiares
RSS Seguir Feed RSS Comentarios | Temas de EmaMedina





Deja tu comentario


Debes estar conectado para ver o escribir comentarios.



Terminos y Condiciones - Politica de Privacidad - Report Abuse - DMCA