Sep 6

Un temerario doble de acción diseña y opera su propio parque temático con sus amigos.

Título original: Action Point
Año: 2018
Duración: 85 min.
País: Estados Unidos Estados Unidos
Dirección: Tim Kirkby
Guion: John Altschuler, Johnny Knoxville
Música: Deke Dickerson, Andrew Feltenstein, John Nau
Fotografía: Michael Snyman
Reparto: Johnny Knoxville, Leon Clingman, Camilla Wolfson, Joe Vaz
Productora: Paramount Pictures
Género: Comedia. Acción

General
Complete name : Action Point [HDRip][Latino].avi
Format : AVI
Format/Info : Audio Video Interleave
File size : 1.50 GiB
Duration : 1 h 24 min
Overall bit rate : 2 530 kb/s
Writing application : VirtualDubMod 1.5.10.2 (build 2540/release)
Writing library : VirtualDubMod build 2540/release

Video
ID : 0
Format : AVC
Format/Info : Advanced Video Codec
Format profile : High@L4.1
Format settings : CABAC / 2 Ref Frames
Format settings, CABAC : Yes
Format settings, RefFrames : 2 frames
Codec ID : H264
Duration : 1 h 24 min
Bit rate : 2 073 kb/s
Width : 720 pixels
Height : 300 pixels
Display aspect ratio : 2.40:1
Frame rate : 23.976 (24000/1001) FPS
Color space : YUV
Chroma subsampling : 4:2:0
Bit depth : 8 bits
Scan type : Progressive
Bits/(Pixel*Frame) : 0.400
Stream size : 1.23 GiB (82%)
Writing library : x264 core
Color range : Limited
Color primaries : BT.601 NTSC
Transfer characteristics : BT.709
Matrix coefficients : BT.601

Audio
ID : 1
Format : AC-3
Format/Info : Audio Coding 3
Format settings, Endianness : Big
Codec ID : 2000
Duration : 1 h 24 min
Bit rate mode : Constant
Bit rate : 448 kb/s
Channel(s) : 6 channels
Channel positions : Front: L C R, Side: L R, LFE
Sampling rate : 48.0 kHz
Frame rate : 31.250 FPS (1536 SPF)
Bit depth : 16 bits
Compression mode : Lossy
Stream size : 271 MiB (18%)
Alignment : Split accross interleaves
Interleave, duration : 42 ms (1.00 video frame)
Interleave, preload duratio : 500 ms
Service kind : Complete Main

Un link sin comprimir

http://katfile.com/2w8an7rv3beu
http://ul.to/wd8ubt2p
https://www.mexashare.com/vdzy1ujrq1vh
https://www.up-4.net/ozj4vm14w0t5

Enlaces intercambiables

http://katfile.com/z1n6u52u10ga/A.P-10-9.part1.rar.html
http://katfile.com/hpel45rnzhjj/A.P-10-9.part2.rar.html
http://ul.to/7pulvtbo
http://ul.to/wsunmdyr
https://openload.co/f/oOuum8gbCa4
https://openload.co/f/vqxZwddrIB8
https://www.mexashare.com/08jrj52mnakz
https://www.mexashare.com/hjsa1freaod6
https://www.up-4.net/uh1gy5ejt7vr
https://www.up-4.net/9dr3w0hxmyol

Ver Online

https://openload.co/f/IK8doj_YtuY


Mensaje Privado
Cargando…
1.027 visitas


Categoria: Acción, Comedias
RSS Seguir Feed RSS Comentarios | Temas de EmaMedina





Deja tu comentario


Debes estar conectado para ver o escribir comentarios.



Terminos y Condiciones - Politica de Privacidad - Report Abuse - DMCA