Sep 8

La vida amorosa de Lara Jean se descontrola cuando las cartas secretas que ha escrito a sus enamorados llegan misteriosamente a manos de sus destinatarios.

Título original: To All the Boys I’ve Loved Before
Año: 2018
Duración: 99 min.
País: Estados Unidos Estados Unidos
Dirección: Susan Johnson
Guion: Sofia Alvarez, Annie Neal (Novela: Jenny Han)
Fotografía: Michael Fimognari
Reparto: Lana Condor, Noah Centineo, Janel Parrish, Israel Broussard, Andrew Bachelor, Anna Cathcart, John Corbett, Emilija Baranac, Christian Michael Cooper, Madeleine Arthur, Trezzo Mahoro, Jeb Beach, Kelcey Mawema, June B. Wilde, Joey Pacheco, Hunter Dillon
Productora: Emitida por Netflix; Overbrook Entertainment / Awesomeness Films
Género: Drama. Romance | Drama romántico. Adolescencia. Comedia juvenil

General
Unique ID : 253310209402449874457056936174946757997 (0xBE91C591747E329495F12CFC13562D6D)
Complete name : Todos chicos que enamore [1080p][Latino].mkv
Format : Matroska
Format version : Version 4 / Version 2
File size : 2.86 GiB
Duration : 1 h 39 min
Overall bit rate mode : Variable
Overall bit rate : 4 094 kb/s
Encoded date : UTC 2018-08-17 07:55:27
Writing application : mkvmerge v6.4.1 (‘Omega Point’) built on Sep 16 2013 22:05:10
Writing library : libebml v1.3.0 + libmatroska v1.4.1

Video
ID : 1
Format : AVC
Format/Info : Advanced Video Codec
Format profile : Main@L4
Format settings : CABAC / 3 Ref Frames
Format settings, CABAC : Yes
Format settings, RefFrames : 3 frames
Codec ID : V_MPEG4/ISO/AVC
Duration : 1 h 39 min
Bit rate mode : Variable
Bit rate : 3 480 kb/s
Maximum bit rate : 5 220 kb/s
Width : 1 920 pixels
Height : 1 080 pixels
Display aspect ratio : 16:9
Frame rate mode : Constant
Frame rate : 23.976 (24000/1001) FPS
Color space : YUV
Chroma subsampling : 4:2:0
Bit depth : 8 bits
Scan type : Progressive
Bits/(Pixel*Frame) : 0.070
Stream size : 2.35 GiB (82%)
Writing library : x264 core 148 r2715 7e75228
Encoding settings : cabac=1 / ref=3 / deblock=1:0:0 / analyse=0x1:0x111 / me=umh / subme=10 / psy=1 / psy_rd=1.00:0.00 / mixed_ref=1 / me_range=24 / chroma_me=1 / trellis=2 / 8x8dct=0 / cqm=0 / deadzone=21,11 / fast_pskip=1 / chroma_qp_offset=-2 / threads=6 / lookahead_threads=1 / sliced_threads=0 / nr=0 / decimate=1 / interlaced=0 / bluray_compat=0 / stitchable=1 / constrained_intra=0 / bframes=2 / b_pyramid=0 / b_adapt=2 / b_bias=0 / direct=3 / weightb=1 / open_gop=0 / weightp=2 / keyint=48 / keyint_min=25 / scenecut=0 / intra_refresh=0 / rc_lookahead=48 / rc=2pass / mbtree=1 / bitrate=3480 / ratetol=1.0 / qcomp=0.50 / qpmin=6 / qpmax=51 / qpstep=4 / cplxblur=20.0 / qblur=0.5 / vbv_maxrate=5220 / vbv_bufsize=6960 / nal_hrd=vbr / filler=0 / ip_ratio=1.40 / aq=1:1.00
Default : Yes
Forced : No
Statistics Tags Issue : mkvmerge v25.0.0 (‘Prog Noir’) 32-bit 2018-08-17 07:35:23 / mkvmerge v6.4.1 (‘Omega Point’) built on Sep 16 2013 22:05:10 2018-08-17 07:55:27
FromStats_BitRate : 3452845
FromStats_Duration : 01:39:52.362000000
FromStats_FrameCount : 143673
FromStats_StreamSize : 2586337449

Audio
ID : 2
Format : E-AC-3
Format/Info : Enhanced Audio Coding 3
Format settings, Endianness : Big
Codec ID : A_EAC3
Duration : 1 h 39 min
Bit rate mode : Constant
Bit rate : 640 kb/s
Channel(s) : 6 channels
Channel positions : Front: L C R, Side: L R, LFE
Sampling rate : 48.0 kHz
Frame rate : 187.500 FPS (256 SPF)
Compression mode : Lossy
Stream size : 457 MiB (16%)
Title : Español latino
Language : Spanish
Service kind : Complete Main
Default : No
Forced : No
Statistics Tags Issue : mkvmerge v25.0.0 (‘Prog Noir’) 32-bit 2018-08-17 07:35:23 / mkvmerge v6.4.1 (‘Omega Point’) built on Sep 16 2013 22:05:10 2018-08-17 07:55:27
FromStats_BitRate : 640000
FromStats_Duration : 01:39:52.736000000
FromStats_FrameCount : 187273
FromStats_StreamSize : 479418880

Text
ID : 3
Format : UTF-8
Codec ID : S_TEXT/UTF8
Codec ID/Info : UTF-8 Plain Text
Title : Español latino [Forzados]
Language : Spanish
Default : No
Forced : Yes
Statistics Tags Issue : mkvmerge v25.0.0 (‘Prog Noir’) 32-bit 2018-08-17 07:35:23 / mkvmerge v6.4.1 (‘Omega Point’) built on Sep 16 2013 22:05:10 2018-08-17 07:55:27
FromStats_BitRate : 1
FromStats_Duration : 01:34:55.274000000
FromStats_FrameCount : 29
FromStats_StreamSize : 801

Un link sin comprimir

http://ul.to/m20po3e7
https://www.mexashare.com/jexcoe5lvcx5/Todos_chicos_que_enamore__5B1080p_5D_5BLatino_5D.mkv.html
https://www.up-4.net/3631zyqiilso

Enlaces intercambiables

http://katfile.com/87m5xsp1akgn/T.L.CH.q.E-11-9.part1.rar.html
http://katfile.com/v4lpngisf9is/T.L.CH.q.E-11-9.part2.rar.html
http://katfile.com/1p5jxy7t97vh/T.L.CH.q.E-11-9.part3.rar.html
http://ul.to/t0txtjnj
http://ul.to/qa2hpjec
http://ul.to/3exkpx1a
https://www.mexashare.com/bndv54qsha4v/T.L.CH.q.E-11-9.part1.rar.html
https://www.mexashare.com/uuwdvc8vkatv/T.L.CH.q.E-11-9.part2.rar.html
https://www.mexashare.com/7olh8ptk33b8/T.L.CH.q.E-11-9.part3.rar.html
https://www.up-4.net/i88dkqhabm35
https://www.up-4.net/djbuw7lqiunw
https://www.up-4.net/12vhangf5skt
https://openload.co/f/nYgNb7k7frw
https://openload.co/f/9d788QBihI4
https://openload.co/f/4giJfNL3pY0

Ver Online

https://openload.co/f/eQvbxeFeH_o


Mensaje Privado
Cargando…
818 visitas


Categoria: Comedias, Dramáticas, Romanticos
RSS Seguir Feed RSS Comentarios | Temas de EmaMedina





Deja tu comentario


Debes estar conectado para ver o escribir comentarios.



Terminos y Condiciones - Politica de Privacidad - Report Abuse - DMCA